[ 1 сообщение ] 
Автор Сообщение
Непрочитанное сообщениеДобавлено: 03 дек 2022, 21:52  
Не в сети
Администратор
Администратор

Раздал: 953.34 МБ
Скачал: 0 байт
Ратио: None.


Зарегистрирован: 21 фев 2021, 00:51
Сообщения: 1051
Репутационный балл: 200
СпециалистСпециалистСпециалистСпециалистСпециалистСпециалистСпециалистСпециалистСпециалистСпециалист
Награды:
подробнее

Медали: 7

Активисту (1) Помощь (1) за участие (1) За 100 релизов (1) за 200 релизов (1)

За 500 релизов (1) За 1000 релизов (1)
Информация о фильме
Название: Бойся темноты
Оригинальное название: Ogre
Год выхода: 2021
Жанр: ужасы, фэнтези, драма
Режиссер: Арно Малерб

В ролях: Ана Жирардо, Джованни Пуччи, Самуэль Жуи, Янник Маццилли, Софи Пинсемель, Фабьен Уссе, Феликс Мальэрб, Эмиль Тенар, Роман Мальэрб, Шарли Тенар

О фильме: Несколько месяцев назад в глухой деревушке бесследно пропал ребенок. Спустя время все почти забыли о происшедшем. Однажды в местную школу приезжает молодая учительница. Вместе с маленьким сыном она пытается начать новую жизнь, подальше сбежав от своего прошлого. Цепь загадочных событий указывает на то, что появление мальчика могло вновь пробудить древнее зло, затаившееся в окрестных лесах.



Выпущено: Бельгия, Франция / Canal+ [fr], Gloria Films, 2.4.7. Films, The Jokers, Ciné, BE TV
Продолжительность: 01:42:04
Озвучивание: Дублированное | Кипарис


Файл
Формат: MKV
Качество: BDRip 1080p
Видео: MPEG-4 AVC, 12.4 Mb/s, 1920x804
Аудио #1: Russian: 48 kHz, AC3 Dolby Digital, 3/2 (L, C, R, l, r) + LFE ch, ~448 Kbps | DUB | Кипарис | КиноПоиск HD
Аудио #2: French: 48 kHz, AC3 Dolby Digital, 3/2 (L, C, R, l, r) + LFE ch, ~640 Kbps | Original
Субтитры: Нет
Дополнительно: Сохранены оригинальные чаптеры.

Complete name: Boysya.temnotyi.2021.BDRip.1080p.ELEKTRI4KA.UNIONGANG.mkv
Format: Matroska
Format version: Version 4
File size: 9.63 GiB
Duration: 1 h 42 min
Overall bit rate: 13.5 Mb/s
Movie name: Boysya.temnotyi.2021.BDRip.1080p.ELEKTRI4KA.UNIONGANG.
Encoded date: UTC 2022-10-22 20:48:17
Writing application: mkvmerge v8.3.0 ('Over the Horizon') 32bit
Writing library: libebml v1.3.1 + libmatroska v1.4.2

Video
ID: 1
Format: AVC
Format/Info: Advanced Video Codec
Format profile: High@L4.1
Format settings: CABAC / 5 Ref Frames
Format settings, CABAC: Yes
Format settings, Reference frames: 5 frames
Codec ID: V_MPEG4/ISO/AVC
Duration: 1 h 42 min
Bit rate: 12.4 Mb/s
Width: 1 920 pixels
Height: 804 pixels
Display aspect ratio: 2.40:1
Frame rate mode: Constant
Frame rate: 24.000 FPS
Color space: YUV
Chroma subsampling: 4:2:0
Bit depth: 8 bits
Scan type: Progressive
Bits/(Pixel*Frame): 0.335
Stream size: 8.86 GiB (92%)
Writing library: x264 core 157 r2958 57baac4
Encoding settings: cabac=1 / ref=5 / deblock=1:-3:-3 / analyse=0x3:0x113 / me=umh / subme=10 / psy=1 / psy_rd=1.00:0.00 / mixed_ref=1 / me_range=32 / chroma_me=1 / trellis=2 / 8x8dct=1 / cqm=0 / deadzone=21, 11 / fast_pskip=0 / chroma_qp_offset=-2 / threads=25 / lookahead_threads=4 / sliced_threads=0 / nr=1 / decimate=0 / interlaced=0 / bluray_compat=0 / constrained_intra=0 / bframes=8 / b_pyramid=2 / b_adapt=2 / b_bias=0 / direct=3 / weightb=1 / open_gop=0 / weightp=2 / keyint=240 / keyint_min=24 / scenecut=40 / intra_refresh=0 / rc=2pass / mbtree=0 / bitrate=12423 / ratetol=1.0 / qcomp=0.60 / qpmin=0 / qpmax=69 / qpstep=4 / cplxblur=20.0 / qblur=0.5 / ip_ratio=1.40 / pb_ratio=1.30 / aq=1:1.00
Default: Yes
Forced: No
Color range: Limited
Color primaries: BT.709
Transfer characteristics: BT.709
Matrix coefficients: BT.709

Audio #1
ID: 2
Format: AC-3
Format/Info: Audio Coding 3
Commercial name: Dolby Digital
Codec ID: A_AC3
Duration: 1 h 42 min
Bit rate mode: Constant
Bit rate: 448 kb/s
Channel(s): 6 channels
Channel layout: L R C LFE Ls Rs
Sampling rate: 48.0 kHz
Frame rate: 31.250 FPS (1536 SPF)
Compression mode: Lossy
Stream size: 327 MiB (3%)
Title: DUB (Kiparis)
Language: Russian
Service kind: Complete Main
Default: Yes
Forced: Yes

Audio #2
ID: 3
Format: AC-3
Format/Info: Audio Coding 3
Commercial name: Dolby Digital
Codec ID: A_AC3
Duration: 1 h 42 min
Bit rate mode: Constant
Bit rate: 640 kb/s
Channel(s): 6 channels
Channel layout: L R C LFE Ls Rs
Sampling rate: 48.0 kHz
Frame rate: 31.250 FPS (1536 SPF)
Compression mode: Lossy
Stream size: 467 MiB (5%)
Title: Original
Language: French
Service kind: Complete Main
Default: No
Forced: No

Menu
00:00:00.000: :Chapter 1
00:08:50.791: :Chapter 2
00:16:26.166: :Chapter 3
00:24:23.791: :Chapter 4
00:34:46.041: :Chapter 5
00:44:47.416: :Chapter 6
00:50:32.375: :Chapter 7
01:00:37.833: :Chapter 8
01:10:01.000: :Chapter 9
01:19:08.166: :Chapter 10
01:28:51.000: :Chapter 11
01:37:09.041: :Chapter 12
01:42:03.958: :Chapter 13


У вас нет необходимых прав для просмотра вложений в этом сообщении.


 Профиль  
Ответить с цитатой  
Сейчас вы смотрите Бойся темноты / Ogre (Эли Лерой) [2021, ужасы, фэнтези, драма, BDRip 1080p] [DUB] [КиноПоиск HD], не забываем оставлять комментарии!
Зарегистрирован 03 дек 2022, 21:52
Статус √ Проверено K15
Торрент Размер: 9.63 ГБ | Скачан: 378 раз | Торрент файл:
Приватный Нет (DHT включён)    Раздают: 30     Качают:    
Здоровье 100%
Поделиться:
Как качать?
Как качать?
Скачайте торрент и откройте его в своем клиенте
uTorrent

скачать программу,
дождитесь окончания загрузки.
Как заливать?
Как заливать?
X

Для того чтобы начать загружать материалы необходимо:
1.Быть зарегистрированным пользователем.
2. Выбрать желаемое направление по жанру.
3. Иметь желание работать на сайте.
4. Возраст должен быть 18+.
5. Желательно иметь опыт работы на других трекерах,
если нет такового не страшно поможем.

Инструкция

Показать сообщения за:  Поле сортировки  
Начать новую тему Ответить на тему  [ 1 сообщение ] 
Не забудьте оставить комментарий!


Запрещено категорически:
» Развязывать разборки (для этого есть ЛС)
» Оставлять комментарии, не относящиеся к содержанию материала.
» Добавлять спам, рекламу флуд..
К спаму относится:
1. Реклама любого направления.
2. Ссылки на сторонние ресурсы рекламного характера.
3. Ссылки на ресурсы порнографического направления.
4. Сылки на блоги и им подбным контeнтам.
» Запрещено оскорбление администрации, модераторов и пользователей.
» Часто писать с вкл. Caps Lock
»За нарушение правил бан или отключение без объяснений.
Уважайте чужой труд!

Правила могут дополняться и изменяться. С уважением Администрация.


Кто сейчас на торрент-трекере

Сейчас этот трекер просматривают: нет зарегистрированных пользователей и гости: 2


Вы не можете начинать темы
Вы не можете отвечать на сообщения
Вы не можете редактировать свои сообщения
Вы не можете удалять свои сообщения
Вы не можете добавлять вложения

Перейти:  
cron
Создано на основе phpBB® Forum Software © phpBB Group
ppkBB3cker v.2.5 © 2008-2018 @ PPK | Icon Theme by Everaldo.com Design Studio
Русская поддержка phpBB


Мы не нарушаем авторские права!
Мнение по данному делу высказала ученая группа Европейского авторского общества (ECS).
Гиперссылка не должна расцениваться как неправомерное распространение произведения или иного объекта авторского права,
поскольку она «является предпосылкой для коммуникаций, а не самим материалом»
.
Яндекс.Метрика
Ресурс не предоставляет электронные версии произведений, а занимается лишь коллекционированием и каталогизацией ссылок, присылаемых и публикуемых на форуме нашими читателями.
Перед Судом Европейского союза были поставлены вопросы: Следует ли расценивать гиперссылку как распространение объекта авторского права третьим лицам? Является ли факт размещения ссылки нарушением авторского права? Мнение по данному делу высказала ученая группа Европейского авторского общества (ECS). По результатам научных исследований группа пришла к выводу, что гиперссылка не должна расцениваться как неправомерное распространение произведения или иного объекта авторского права, поскольку она «является предпосылкой для коммуникаций, а не самим материалом». Ученые отметили, что возможность делать ссылки на различные источники и документы является неотъемлемым основополагающим правом на свободу слова и высказывания.
cron cron