[ 1 сообщение ] 
Автор Сообщение
Непрочитанное сообщениеДобавлено: 03 дек 2022, 22:18  
Не в сети
Администратор
Администратор
Аватара пользователя

Раздал: 1.73 ТБ
Скачал: 0 байт
Ратио: None.


Зарегистрирован: 21 фев 2021, 00:51
Сообщения: 1170
Репутационный балл: 200
СпециалистСпециалистСпециалистСпециалистСпециалистСпециалистСпециалистСпециалистСпециалистСпециалист
Награды:
подробнее

Медали: 7

Активисту (1) Помощь (1) за участие (1) За 100 релизов (1) за 200 релизов (1)

За 500 релизов (1) За 1000 релизов (1)
Информация о фильме
Название: Смертельный пранк
Оригинальное название: Uploaded
Год выхода: 2021
Жанр: триллер
Режиссер: Камран Делан, Этан Блэк

В ролях: Эрик Робертс, Беверли Митчелл, Брайан Краузе, Том Грин, Тиффани Шепис, Челси О'Тул, Элис Хэйг, Джош Сервер, Дэн Консидайн, Джесс Вудроу

О фильме: Марк Клифтон молод, знаменит и успешен. У него прекрасная девушка и прибыльная работа, на которой не соскучишься, — он один из лучших пранкеров в стране. Марк придумывает адреналиновые розыгрыши на грани фола, но однажды кто-то решает отплатить ему той же монетой. Во всех новостях гремит новость о вооружённом ограблении банка, в результате которого погибла одна девушка. И по ряду очевидных улик Марк оказывается главным подозреваемым. Его репутация, свобода и даже любовь теперь висят на волоске, а за ним по пятам идёт бескомпромиссный детектив полиции. Когда есть реальная опасность потерять всё, становится не до смеха.



Выпущено: США / Digital Mind Productions (II), Dreamchild Films
Продолжительность: 01:32:43
Озвучивание: Профессиональное (многоголосое) | КиноПоиск HD

Файл
Формат: MKV
Качество: WEB-DL 1080p | AMAZON Version

Видео: MPEG-4 AVC, 6803 Kb/s, 1920x1080
Аудио #1: Russian: 48 kHz, AC3 Dolby Digital, 2/0 (L, R) ch, ~192 Kbps | MVO | КиноПоиск HD
Аудио #2: English: 48 kHz, Enhanced AC3 Dolby Digital, 3/2 (L, C, R, l, r) + LFE ch, ~640 Kbps | Original
Субтитры: Нет
Дополнительно: Нет

Complete name: Smertelnyiy.prank.2021.AMZN.WEB-DL.1080p.ELEKTRI4KA.UNIONGANG.mkv
Format: Matroska
Format version: Version 4
File size: 4.95 GiB
Duration: 1 h 32 min
Overall bit rate: 7 637 kb/s
Movie name: Smertelnyiy.prank.2021.AMZN.WEB-DL.1080p.ELEKTRI4KA.UNIONGANG.
Encoded date: UTC 2022-10-23 15:08:43
Writing application: mkvmerge v8.3.0 ('Over the Horizon') 32bit
Writing library: libebml v1.3.1 + libmatroska v1.4.2

Video
ID: 1
Format: AVC
Format/Info: Advanced Video Codec
Format profile: High@L4
Format settings: CABAC / 4 Ref Frames
Format settings, CABAC: Yes
Format settings, Reference frames: 4 frames
Codec ID: V_MPEG4/ISO/AVC
Duration: 1 h 32 min
Bit rate: 6 803 kb/s
Width: 1 920 pixels
Height: 1 080 pixels
Display aspect ratio: 16:9
Frame rate mode: Constant
Frame rate: 23.976 (24000/1001) FPS
Color space: YUV
Chroma subsampling: 4:2:0
Bit depth: 8 bits
Scan type: Progressive
Bits/(Pixel*Frame): 0.137
Stream size: 4.41 GiB (89%)
Default: Yes
Forced: No
Color range: Limited
Color primaries: BT.709
Transfer characteristics: BT.709
Matrix coefficients: BT.709

Audio #1
ID: 2
Format: AC-3
Format/Info: Audio Coding 3
Commercial name: Dolby Digital
Codec ID: A_AC3
Duration: 1 h 32 min
Bit rate mode: Constant
Bit rate: 192 kb/s
Channel(s): 2 channels
Channel layout: L R
Sampling rate: 48.0 kHz
Frame rate: 31.250 FPS (1536 SPF)
Compression mode: Lossy
Stream size: 127 MiB (3%)
Title: MVO (KP HD)
Language: Russian
Service kind: Complete Main
Default: Yes
Forced: Yes

Audio #2
ID: 3
Format: E-AC-3
Format/Info: Enhanced AC-3
Commercial name: Dolby Digital Plus
Codec ID: A_EAC3
Duration: 1 h 32 min
Bit rate mode: Constant
Bit rate: 640 kb/s
Channel(s): 6 channels
Channel layout: L R C LFE Ls Rs
Sampling rate: 48.0 kHz
Frame rate: 31.250 FPS (1536 SPF)
Compression mode: Lossy
Stream size: 424 MiB (8%)
Title: Original
Language: English
Service kind: Complete Main
Default: No
Forced: No


У вас нет необходимых прав для просмотра вложений в этом сообщении.


 Профиль  
Ответить с цитатой  
Сейчас вы смотрите Смертельный пранк / Uploaded (Камран Делан, Этан Блэк) [2021, триллер, WEB-DL 1080p] [MVO] [КиноПоиск HD], не забываем оставлять комментарии!
Зарегистрирован 03 дек 2022, 22:18
Статус √ Проверено Zaharov
Торрент Размер: 4.95 ГБ | Скачан: 419 раз | Торрент файл:
Приватный Нет (DHT включён)    Раздают: 30     Качают:    
Здоровье 100%
Поделиться:
Как качать?
Как качать?
Скачайте торрент и откройте его в своем клиенте
uTorrent

скачать программу,
дождитесь окончания загрузки.
Как заливать?
Как заливать?
X

Для того чтобы начать загружать материалы необходимо:
1.Быть зарегистрированным пользователем.
2. Выбрать желаемое направление по жанру.
3. Иметь желание работать на сайте.
4. Возраст должен быть 18+.
5. Желательно иметь опыт работы на других трекерах,
если нет такового не страшно поможем.

Инструкция

Показать сообщения за:  Поле сортировки  
Начать новую тему Ответить на тему  [ 1 сообщение ] 
Не забудьте оставить комментарий!


Запрещено категорически:
» Развязывать разборки (для этого есть ЛС)
» Оставлять комментарии, не относящиеся к содержанию материала.
» Добавлять спам, рекламу флуд..
К спаму относится:
1. Реклама любого направления.
2. Ссылки на сторонние ресурсы рекламного характера.
3. Ссылки на ресурсы порнографического направления.
4. Сылки на блоги и им подбным контeнтам.
» Запрещено оскорбление администрации, модераторов и пользователей.
» Часто писать с вкл. Caps Lock
»За нарушение правил бан или отключение без объяснений.
Уважайте чужой труд!

Правила могут дополняться и изменяться. С уважением Администрация.


Кто сейчас на торрент-трекере

Сейчас этот трекер просматривают: нет зарегистрированных пользователей и гости: 4


Вы не можете начинать темы
Вы не можете отвечать на сообщения
Вы не можете редактировать свои сообщения
Вы не можете удалять свои сообщения
Вы не можете добавлять вложения

Перейти:  
Создано на основе phpBB® Forum Software © phpBB Group
ppkBB3cker v.2.5 © 2008-2018 @ PPK | Icon Theme by Everaldo.com Design Studio
Русская поддержка phpBB


Мы не нарушаем авторские права!
Мнение по данному делу высказала ученая группа Европейского авторского общества (ECS).
Гиперссылка не должна расцениваться как неправомерное распространение произведения или иного объекта авторского права,
поскольку она «является предпосылкой для коммуникаций, а не самим материалом»
.
Яндекс.Метрика
Ресурс не предоставляет электронные версии произведений, а занимается лишь коллекционированием и каталогизацией ссылок, присылаемых и публикуемых на форуме нашими читателями.
Перед Судом Европейского союза были поставлены вопросы: Следует ли расценивать гиперссылку как распространение объекта авторского права третьим лицам? Является ли факт размещения ссылки нарушением авторского права? Мнение по данному делу высказала ученая группа Европейского авторского общества (ECS). По результатам научных исследований группа пришла к выводу, что гиперссылка не должна расцениваться как неправомерное распространение произведения или иного объекта авторского права, поскольку она «является предпосылкой для коммуникаций, а не самим материалом». Ученые отметили, что возможность делать ссылки на различные источники и документы является неотъемлемым основополагающим правом на свободу слова и высказывания.
cron cron