[ 1 сообщение ] 
Автор Сообщение
Непрочитанное сообщениеДобавлено: 04 дек 2022, 10:32  
Не в сети
Администратор
Администратор
Аватара пользователя

Раздал: 21.21 ТБ
Скачал: 1.97 ТБ
Ратио: 1010.650


Зарегистрирован: 18 фев 2021, 17:36
Сообщения: 11798
Откуда: Россия
Репутационный балл: 200
СпециалистСпециалистСпециалистСпециалистСпециалистСпециалистСпециалистСпециалистСпециалистСпециалист
Награды:
подробнее

Медали: 13

Активисту (1) Создание сайта (1) За 100 релизов (1) за 200 релизов (1) За 500 релизов (1)

За 1000 релизов (1) за 3000 релизов (1) за 4000 релизов (1) за 5000 релизов (1) Верный сид - за 5 Тб отданного (1)

Верный сид  за 10 Тб отданного (1) Верный сид  за 15 Тб отданного (1) Верный сид  за 20 Тб отданного (1)
Информация о фильме
Название: Треугольник печали
Оригинальное название: Triangle of Sadness
Год выхода: 2022
Жанр: Драма, комедия

Режиссер: Рубен Эстлунд
В ролях: Харрис Дикинсон, Чарлби Дин, Вуди Харрельсон, Ханна Ольденбург, Златко Бурич, Алисия Эрикссон, Каролина Джиннинг, Долли Де Леон, Линда Онборг, Мальте Гордингер, Сунньи Меллес, Ирис Бербен, Оливер Форд Дейвис, Хенрик Дорсин, Жан-Кристоф Фолли, Камилла Лекберг, Штефан Гёдикке, Ральф Шиха



О фильме: Пара моделей Карл и Яя отправляются в роскошный круиз на яхте в компании богатых пассажиров, где можно встретить и русского бизнесмена, и британских производителей оружия, и гения IT. Капитан судна — марксист, находящийся в перманентном запое. Пока всё идёт своим чередом: гости отдыхают, персонал трудится, жена русского бизнесмена чудит. Но вскоре произойдёт неожиданное событие, которое перевернёт заведённый порядок и вынудит некоторых переосмыслить своё место и значимость.

Страна: Швеция, Франция, Великобритания, Германия, Турция, Греция, США, Дания, Швейцария, Мексика
Студия: 30West, Arte France, arte France Cinéma, BBC Films, BFI, Bord Cadre Films, Canal+ [fr], Ciné, Coproduction Office, Det Danske Filminstitut, Essential Filmproduktion GmbH, Eurimages, Film i Väst, Heretic, Imperative Entertainment, Medienboard Berlin-Brandenburg, MOIN - Film Fund Hamburg Schleswig-Holstein, Nordisk Film A/S, Piano, Plattform Produktion, Sovereign Films (II), Svenska Filminstitutet (SFI), Sveriges Television (SVT), TRT, ZDF/Arte
Продолжительность: 02:27:15
Перевод: Профессиональный многоголосый | Jaskier

Качество: WEB-DL 1080p
Видео: MPEG-4 AVC, 1920x800, 8524 Kbit/s, 23.976 fps
Аудио #01: 48 kHz, AC3, 5.1, 384 Kbps | Профессиональный многоголосый | Jaskier| RUS |
Аудио #02: 48 kHz, E-AC3, 5.1, 640 Kbps | Оригинал | ENG |
Субтитры: Русские (Full), английские



General
Unique ID : 237751901517994136598731923362987677055 (0xB2DD59C3FDF5800E3707C477E848957F)
Complete name : D:VideosTriangle.of.Sadness.2022.AMZN.WEB-DL.1080p.seleZen.mkv
Format : Matroska
Format version : Version 4
File size : 9.82 GiB
Duration : 2 h 27 min
Overall bit rate : 9 551 kb/s
Movie name : Triangle of Sadness 2022 from seleZen
Encoded date : UTC 2022-12-03 20:30:01
Writing application : mkvmerge v59.0.0 ('Shining Star') 64-bit
Writing library : libebml v1.4.2 + libmatroska v1.6.4

Video
ID : 1
Format : AVC
Format/Info : Advanced Video Codec
Format profile : High@L4
Format settings : CABAC / 4 Ref Frames
Format settings, CABAC : Yes
Format settings, Reference : 4 frames
Codec ID : V_MPEG4/ISO/AVC
Duration : 2 h 27 min
Bit rate mode : Constant
Bit rate : 8 524 kb/s
Nominal bit rate : 10 000 kb/s
Width : 1 920 pixels
Height : 800 pixels
Display aspect ratio : 2.40:1
Frame rate mode : Constant
Frame rate : 23.976 (24000/1001) FPS
Color space : YUV
Chroma subsampling : 4:2:0
Bit depth : 8 bits
Scan type : Progressive
Bits/(Pixel*Frame) : 0.231
Stream size : 8.77 GiB (89%)
Language : English
Default : Yes
Forced : No
Color range : Limited
Color primaries : BT.709
Transfer characteristics : BT.709
Matrix coefficients : BT.709

Audio #1
ID : 2
Format : AC-3
Format/Info : Audio Coding 3
Commercial name : Dolby Digital
Codec ID : A_AC3
Duration : 2 h 27 min
Bit rate mode : Constant
Bit rate : 384 kb/s
Channel(s) : 6 channels
Channel layout : L R C LFE Ls Rs
Sampling rate : 48.0 kHz
Frame rate : 31.250 FPS (1536 SPF)
Compression mode : Lossy
Stream size : 404 MiB (4%)
Title : MVO [Jaskier]
Language : Russian
Service kind : Complete Main
Default : Yes
Forced : Yes

Audio #2
ID : 3
Format : E-AC-3
Format/Info : Enhanced AC-3
Commercial name : Dolby Digital Plus
Codec ID : A_EAC3
Duration : 2 h 27 min
Bit rate mode : Constant
Bit rate : 640 kb/s
Channel(s) : 6 channels
Channel layout : L R C LFE Ls Rs
Sampling rate : 48.0 kHz
Frame rate : 31.250 FPS (1536 SPF)
Compression mode : Lossy
Stream size : 674 MiB (7%)
Title : Original
Language : English
Service kind : Complete Main
Default : No
Forced : No

Text #1
ID : 4
Format : UTF-8
Codec ID : S_TEXT/UTF8
Codec ID/Info : UTF-8 Plain Text
Duration : 2 h 22 min
Bit rate : 80 b/s
Frame rate : 0.206 FPS
Count of elements : 1759
Stream size : 83.7 KiB (0%)
Title : Full [FOCS]
Language : Russian
Default : No
Forced : No

Text #2
ID : 5
Format : UTF-8
Codec ID : S_TEXT/UTF8
Codec ID/Info : UTF-8 Plain Text
Duration : 2 h 21 min
Bit rate : 52 b/s
Frame rate : 0.190 FPS
Count of elements : 1618
Stream size : 54.3 KiB (0%)
Title : Full
Language : English
Default : No
Forced : No

Text #3
ID : 6
Format : UTF-8
Codec ID : S_TEXT/UTF8
Codec ID/Info : UTF-8 Plain Text
Duration : 2 h 23 min
Bit rate : 57 b/s
Frame rate : 0.209 FPS
Count of elements : 1799
Stream size : 60.7 KiB (0%)
Title : SDH
Language : English
Default : No
Forced : No


У вас нет необходимых прав для просмотра вложений в этом сообщении.

_________________

Друзья не забываем оставить комментарий к материалу!


 Профиль  
Ответить с цитатой  
Сейчас вы смотрите Треугольник печали / Triangle of Sadness (2022) WEB-DL 1080p | P, не забываем оставлять комментарии!
Зарегистрирован 04 дек 2022, 10:32
Статус √ Проверено Иваныч
Торрент Размер: 9.82 ГБ | Скачан: 45669 раз | Торрент файл:
Приватный Нет (DHT включён)    Раздают: 10670     Качают: 7492     
Здоровье 100%
Поделиться:
Как качать?
Как качать?
Скачайте торрент и откройте его в своем клиенте
uTorrent

скачать программу,
дождитесь окончания загрузки.
Как заливать?
Как заливать?
X

Для того чтобы начать загружать материалы необходимо:
1.Быть зарегистрированным пользователем.
2. Выбрать желаемое направление по жанру.
3. Иметь желание работать на сайте.
4. Возраст должен быть 18+.
5. Желательно иметь опыт работы на других трекерах,
если нет такового не страшно поможем.

Инструкция

Показать сообщения за:  Поле сортировки  
Начать новую тему Ответить на тему  [ 1 сообщение ] 
Не забудьте оставить комментарий!


Запрещено категорически:
» Развязывать разборки (для этого есть ЛС)
» Оставлять комментарии, не относящиеся к содержанию материала.
» Добавлять спам, рекламу флуд..
К спаму относится:
1. Реклама любого направления.
2. Ссылки на сторонние ресурсы рекламного характера.
3. Ссылки на ресурсы порнографического направления.
4. Сылки на блоги и им подбным контeнтам.
» Запрещено оскорбление администрации, модераторов и пользователей.
» Часто писать с вкл. Caps Lock
»За нарушение правил бан или отключение без объяснений.
Уважайте чужой труд!

Правила могут дополняться и изменяться. С уважением Администрация.


Кто сейчас на торрент-трекере

Сейчас этот трекер просматривают: нет зарегистрированных пользователей и гости: 5


Вы не можете начинать темы
Вы не можете отвечать на сообщения
Вы не можете редактировать свои сообщения
Вы не можете удалять свои сообщения
Вы не можете добавлять вложения

Перейти:  
cron
Создано на основе phpBB® Forum Software © phpBB Group
ppkBB3cker v.2.5 © 2008-2018 @ PPK | Icon Theme by Everaldo.com Design Studio
Русская поддержка phpBB


Мы не нарушаем авторские права!
Мнение по данному делу высказала ученая группа Европейского авторского общества (ECS).
Гиперссылка не должна расцениваться как неправомерное распространение произведения или иного объекта авторского права,
поскольку она «является предпосылкой для коммуникаций, а не самим материалом»
.
Яндекс.Метрика
Ресурс не предоставляет электронные версии произведений, а занимается лишь коллекционированием и каталогизацией ссылок, присылаемых и публикуемых на форуме нашими читателями.
Перед Судом Европейского союза были поставлены вопросы: Следует ли расценивать гиперссылку как распространение объекта авторского права третьим лицам? Является ли факт размещения ссылки нарушением авторского права? Мнение по данному делу высказала ученая группа Европейского авторского общества (ECS). По результатам научных исследований группа пришла к выводу, что гиперссылка не должна расцениваться как неправомерное распространение произведения или иного объекта авторского права, поскольку она «является предпосылкой для коммуникаций, а не самим материалом». Ученые отметили, что возможность делать ссылки на различные источники и документы является неотъемлемым основополагающим правом на свободу слова и высказывания.
cron cron