[ 1 сообщение ] 
Автор Сообщение
Непрочитанное сообщениеДобавлено: 27 авг 2022, 19:35  
Не в сети
Администратор
Администратор
Аватара пользователя

Раздал: 21.12 ТБ
Скачал: 1.97 ТБ
Ратио: 1010.603


Зарегистрирован: 18 фев 2021, 17:36
Сообщения: 11201
Откуда: Россия
Репутационный балл: 200
СпециалистСпециалистСпециалистСпециалистСпециалистСпециалистСпециалистСпециалистСпециалистСпециалист
Награды:
подробнее

Медали: 13

Активисту (1) Создание сайта (1) За 100 релизов (1) за 200 релизов (1) За 500 релизов (1)

За 1000 релизов (1) за 3000 релизов (1) за 4000 релизов (1) за 5000 релизов (1) Верный сид - за 5 Тб отданного (1)

Верный сид  за 10 Тб отданного (1) Верный сид  за 15 Тб отданного (1) Верный сид  за 20 Тб отданного (1)
Информация о фильме
Название: Окно дикой природы - Подводный лес
Оригинальное название: Wild Window - Forest in the Sea
Год выхода: 2017
Жанр: Документальный, природа, видовой
Режиссер: Ховард Холл

О фильме:
Подводная кинематография от шестикратного лауреата премии "Эмми". В этой подборке представлены красивые изображения, снятые в обширных океанских лесах янтарных водорослей. С помощью цифровых кинокамер сверхвысокого разрешения вдоль тихоокеанского побережья Северной Америки от Мексики до Аляски. Захватывающие виды под музыку Алана Уильямса.

Страна: США
Студия: Howard Hall Productions
Продолжительность: 00:56:20
Перевод: Не требуется

Файл
Кодек: HEVC / Н.265
Качество: UHDTV 2160p
Видео: 3840x2160 (16:9), HEVC (Н.265), Main 10@L5, ~ 15,7 Mbps, 50fps, 10 bits
Звук: 48 kHz, A AC- LC Dolby Digital, 2/0 (L,R) ch, ~192.00 kbps avg

Семпл

Complete name : G:ТоррентыWild Window_Forest in the Sea.mkv
Format : Matroska
Format version : Version 4
File size : 6.27 GiB
Duration : 56 min 20 s
Overall bit rate : 15.9 Mb/s
Encoded date : UTC 2022-08-27 02:43:46
Writing application : mkvmerge v60.0.0 ('Are We Copies?') 32-bit
Writing library : libebml v1.4.2 + libmatroska v1.6.4

Video
ID : 1
Format : HEVC
Format/Info : High Efficiency Video Coding
Format profile : Main 10@L5.1@Main
Codec ID : V_MPEGH/ISO/HEVC
Duration : 56 min 20 s
Bit rate : 15.7 Mb/s
Width : 3 840 pixels
Height : 2 160 pixels
Display aspect ratio : 16:9
Frame rate mode : Constant
Frame rate : 50.000 FPS
Standard : Component
Color space : YUV
Chroma subsampling : 4:2:0 (Type 0)
Bit depth : 10 bits
Bits/(Pixel*Frame) : 0.038
Stream size : 6.19 GiB (99%)
Default : Yes
Forced : No
Color range : Limited
Color primaries : BT.709
Transfer characteristics : BT.709
Matrix coefficients : BT.709

Audio
ID : 2
Format : AAC LC
Format/Info : Advanced Audio Codec Low Complexity
Codec ID : A_AAC-2
Duration : 56 min 20 s
Bit rate : 192 kb/s
Channel(s) : 2 channels
Channel layout : L R
Sampling rate : 48.0 kHz
Frame rate : 46.875 FPS (1024 SPF)
Compression mode : Lossy
Delay relative to video : 80 ms
Stream size : 76.3 MiB (1%)
Language : Russian
Default : Yes
Forced : No


Релиз от: Иваныч


У вас нет необходимых прав для просмотра вложений в этом сообщении.

_________________

Друзья не забываем оставить комментарий к материалу!


 Профиль  
Ответить с цитатой  
Зарегистрирован 27 авг 2022, 19:35
Статус √ Проверено Иваныч
Торрент Размер: 6.27 ГБ | Скачан: 95 раз | Торрент файл:
Приватный Нет (DHT включён)    Раздают: 67     Качают: 21     
Здоровье 100%
Поделиться:
Как качать?
Как качать?
Скачайте торрент и откройте его в своем клиенте
uTorrent

скачать программу,
дождитесь окончания загрузки.
Как заливать?
Как заливать?
X

Для того чтобы начать загружать материалы необходимо:
1.Быть зарегистрированным пользователем.
2. Выбрать желаемое направление по жанру.
3. Иметь желание работать на сайте.
4. Возраст должен быть 18+.
5. Желательно иметь опыт работы на других трекерах,
если нет такового не страшно поможем.

Инструкция

Показать сообщения за:  Поле сортировки  
Начать новую тему Ответить на тему  [ 1 сообщение ] 
Не забудьте оставить комментарий!


Запрещено категорически:
» Развязывать разборки (для этого есть ЛС)
» Оставлять комментарии, не относящиеся к содержанию материала.
» Добавлять спам, рекламу флуд..
К спаму относится:
1. Реклама любого направления.
2. Ссылки на сторонние ресурсы рекламного характера.
3. Ссылки на ресурсы порнографического направления.
4. Сылки на блоги и им подбным контeнтам.
» Запрещено оскорбление администрации, модераторов и пользователей.
» Часто писать с вкл. Caps Lock
»За нарушение правил бан или отключение без объяснений.
Уважайте чужой труд!

Правила могут дополняться и изменяться. С уважением Администрация.


Кто сейчас на торрент-трекере

Сейчас этот трекер просматривают: нет зарегистрированных пользователей и гости: 1


Вы не можете начинать темы
Вы не можете отвечать на сообщения
Вы не можете редактировать свои сообщения
Вы не можете удалять свои сообщения
Вы не можете добавлять вложения

Перейти:  
cron
Создано на основе phpBB® Forum Software © phpBB Group
ppkBB3cker v.2.5 © 2008-2018 @ PPK | Icon Theme by Everaldo.com Design Studio
Русская поддержка phpBB


Мы не нарушаем авторские права!
Мнение по данному делу высказала ученая группа Европейского авторского общества (ECS).
Гиперссылка не должна расцениваться как неправомерное распространение произведения или иного объекта авторского права,
поскольку она «является предпосылкой для коммуникаций, а не самим материалом»
.
Яндекс.Метрика
Ресурс не предоставляет электронные версии произведений, а занимается лишь коллекционированием и каталогизацией ссылок, присылаемых и публикуемых на форуме нашими читателями.
Перед Судом Европейского союза были поставлены вопросы: Следует ли расценивать гиперссылку как распространение объекта авторского права третьим лицам? Является ли факт размещения ссылки нарушением авторского права? Мнение по данному делу высказала ученая группа Европейского авторского общества (ECS). По результатам научных исследований группа пришла к выводу, что гиперссылка не должна расцениваться как неправомерное распространение произведения или иного объекта авторского права, поскольку она «является предпосылкой для коммуникаций, а не самим материалом». Ученые отметили, что возможность делать ссылки на различные источники и документы является неотъемлемым основополагающим правом на свободу слова и высказывания.
cron cron