[ 1 сообщение ] 
Автор Сообщение
Непрочитанное сообщениеДобавлено: 08 окт 2022, 11:36  
Не в сети
Администратор
Администратор
Аватара пользователя

Раздал: 21.12 ТБ
Скачал: 1.97 ТБ
Ратио: 1010.602


Зарегистрирован: 18 фев 2021, 17:36
Сообщения: 11192
Откуда: Россия
Репутационный балл: 200
СпециалистСпециалистСпециалистСпециалистСпециалистСпециалистСпециалистСпециалистСпециалистСпециалист
Награды:
подробнее

Медали: 13

Активисту (1) Создание сайта (1) За 100 релизов (1) за 200 релизов (1) За 500 релизов (1)

За 1000 релизов (1) за 3000 релизов (1) за 4000 релизов (1) за 5000 релизов (1) Верный сид - за 5 Тб отданного (1)

Верный сид  за 10 Тб отданного (1) Верный сид  за 15 Тб отданного (1) Верный сид  за 20 Тб отданного (1)
Информация о фильме
Название: Аляска и её соседи
Оригинальное название: Alaska and the Wilds Beyond
Год выхода: 2021
Жанр: Документальный, природа, флора, фауна
Режиссер: Сэмюэл Холл

О фильме:
Аляска, Канада, Норвегия и Арктика - одни из самых холодных и отдаленных районов на Земле. Животные, которые обитают в этих местах, прекрасно приспособлены к выживанию в таких суровых условиях. Белые медведи, касатки и тихоокеанские сельдевые акулы успешно охотятся в этих ледяных водах. Между тем вдали от моря свою добычу упорно преследуют волки, лисы и росомахи.
Страна: США
Студия: National Geographic
Продолжительность: 00:42:10
Перевод: Профессиональный (одноголосый закадровый) Велес

Файл
Кодек: AVC/H.264
Качество: HDTVRip 720p
Видео: 1280x720 (16:9), 25 fps, AVC (H.264), High@L4,1, 4000 kbps avg, 0.174 bit/pixel
Звук:
Русский 48 kHz, AC3 Dolby Digital, 2/0 (L,R) ch, ~192.00 kbps avg
Английский 48 kHz, AC3 Dolby Digital, 2/0 (L,R) ch, ~128.00 kbps avg

Семпл

Complete name : F:НаладкиАляска и её соседи_720p.mkv
Format : Matroska
Format version : Version 4
File size : 1.27 GiB
Duration : 42 min 10 s
Overall bit rate : 4 323 kb/s
Encoded date : UTC 2022-09-25 04:39:37
Writing application : mkvmerge v6.6.0 ('The Edge Of The In Between') built on Dec 1 2013 17:55:00
Writing library : libebml v1.3.0 + libmatroska v1.4.1

Video
ID : 1
Format : AVC
Format/Info : Advanced Video Codec
Format profile : High@L4.1
Format settings : CABAC / 9 Ref Frames
Format settings, CABAC : Yes
Format settings, Reference : 9 frames
Codec ID : V_MPEG4/ISO/AVC
Duration : 42 min 10 s
Bit rate : 4 000 kb/s
Width : 1 280 pixels
Height : 720 pixels
Display aspect ratio : 16:9
Frame rate mode : Constant
Frame rate : 25.000 FPS
Color space : YUV
Chroma subsampling : 4:2:0
Bit depth : 8 bits
Scan type : Progressive
Bits/(Pixel*Frame) : 0.174
Stream size : 1.15 GiB (91%)
Writing library : x264 core 164 r3079 d9a19f0
Encoding settings : cabac=1 / ref=9 / deblock=1:-3:-3 / analyse=0x3:0x113 / me=umh / subme=10 / psy=1 / psy_rd=1.00:0.15 / mixed_ref=1 / me_range=32 / chroma_me=1 / trellis=2 / 8x8dct=1 / cqm=0 / deadzone=21,11 / fast_pskip=1 / chroma_qp_offset=-3 / threads=16 / lookahead_threads=2 / sliced_threads=0 / nr=0 / decimate=1 / interlaced=0 / bluray_compat=0 / constrained_intra=0 / bframes=10 / b_pyramid=2 / b_adapt=2 / b_bias=0 / direct=3 / weightb=1 / open_gop=0 / weightp=2 / keyint=250 / keyint_min=25 / scenecut=40 / intra_refresh=0 / rc_lookahead=60 / rc=2pass / mbtree=1 / bitrate=4000 / ratetol=1.0 / qcomp=0.60 / qpmin=0 / qpmax=69 / qpstep=4 / cplxblur=20.0 / qblur=0.5 / vbv_maxrate=14000 / vbv_bufsize=14000 / nal_hrd=none / filler=0 / ip_ratio=1.40 / aq=1:1.00
Default : Yes
Forced : No

Audio #1
ID : 2
Format : AC-3
Format/Info : Audio Coding 3
Commercial name : Dolby Digital
Codec ID : A_AC3
Duration : 42 min 10 s
Bit rate mode : Constant
Bit rate : 192 kb/s
Channel(s) : 2 channels
Channel layout : L R
Sampling rate : 48.0 kHz
Frame rate : 31.250 FPS (1536 SPF)
Bit depth : 16 bits
Compression mode : Lossy
Stream size : 57.9 MiB (4%)
Language : Russian
Service kind : Complete Main
Default : Yes
Forced : Yes

Audio #2
ID : 3
Format : AC-3
Format/Info : Audio Coding 3
Commercial name : Dolby Digital
Codec ID : A_AC3
Duration : 42 min 10 s
Bit rate mode : Constant
Bit rate : 128 kb/s
Channel(s) : 2 channels
Channel layout : L R
Sampling rate : 48.0 kHz
Frame rate : 31.250 FPS (1536 SPF)
Bit depth : 16 bits
Compression mode : Lossy
Stream size : 38.6 MiB (3%)
Language : English
Service kind : Complete Main
Default : No
Forced : No


Релиз от: Иваныч


У вас нет необходимых прав для просмотра вложений в этом сообщении.

_________________

Друзья не забываем оставить комментарий к материалу!


 Профиль  
Ответить с цитатой  
Зарегистрирован 08 окт 2022, 11:36
Статус √ Проверено Иваныч
Торрент Размер: 1.27 ГБ | Скачан: 32 раз | Торрент файл:
Приватный Нет (DHT включён)    Раздают: 36     Качают: 33     
Здоровье 100%
Поделиться:
Как качать?
Как качать?
Скачайте торрент и откройте его в своем клиенте
uTorrent

скачать программу,
дождитесь окончания загрузки.
Как заливать?
Как заливать?
X

Для того чтобы начать загружать материалы необходимо:
1.Быть зарегистрированным пользователем.
2. Выбрать желаемое направление по жанру.
3. Иметь желание работать на сайте.
4. Возраст должен быть 18+.
5. Желательно иметь опыт работы на других трекерах,
если нет такового не страшно поможем.

Инструкция

Показать сообщения за:  Поле сортировки  
Начать новую тему Ответить на тему  [ 1 сообщение ] 
Не забудьте оставить комментарий!


Запрещено категорически:
» Развязывать разборки (для этого есть ЛС)
» Оставлять комментарии, не относящиеся к содержанию материала.
» Добавлять спам, рекламу флуд..
К спаму относится:
1. Реклама любого направления.
2. Ссылки на сторонние ресурсы рекламного характера.
3. Ссылки на ресурсы порнографического направления.
4. Сылки на блоги и им подбным контeнтам.
» Запрещено оскорбление администрации, модераторов и пользователей.
» Часто писать с вкл. Caps Lock
»За нарушение правил бан или отключение без объяснений.
Уважайте чужой труд!

Правила могут дополняться и изменяться. С уважением Администрация.


Кто сейчас на торрент-трекере

Сейчас этот трекер просматривают: нет зарегистрированных пользователей и гости: 1


Вы не можете начинать темы
Вы не можете отвечать на сообщения
Вы не можете редактировать свои сообщения
Вы не можете удалять свои сообщения
Вы не можете добавлять вложения

Перейти:  
Создано на основе phpBB® Forum Software © phpBB Group
ppkBB3cker v.2.5 © 2008-2018 @ PPK | Icon Theme by Everaldo.com Design Studio
Русская поддержка phpBB


Мы не нарушаем авторские права!
Мнение по данному делу высказала ученая группа Европейского авторского общества (ECS).
Гиперссылка не должна расцениваться как неправомерное распространение произведения или иного объекта авторского права,
поскольку она «является предпосылкой для коммуникаций, а не самим материалом»
.
Яндекс.Метрика
Ресурс не предоставляет электронные версии произведений, а занимается лишь коллекционированием и каталогизацией ссылок, присылаемых и публикуемых на форуме нашими читателями.
Перед Судом Европейского союза были поставлены вопросы: Следует ли расценивать гиперссылку как распространение объекта авторского права третьим лицам? Является ли факт размещения ссылки нарушением авторского права? Мнение по данному делу высказала ученая группа Европейского авторского общества (ECS). По результатам научных исследований группа пришла к выводу, что гиперссылка не должна расцениваться как неправомерное распространение произведения или иного объекта авторского права, поскольку она «является предпосылкой для коммуникаций, а не самим материалом». Ученые отметили, что возможность делать ссылки на различные источники и документы является неотъемлемым основополагающим правом на свободу слова и высказывания.