[ 1 сообщение ] 
Автор Сообщение
Непрочитанное сообщениеДобавлено: 23 окт 2022, 22:12  
Не в сети
Администратор
Администратор
Аватара пользователя

Раздал: 21.21 ТБ
Скачал: 1.97 ТБ
Ратио: 1010.647


Зарегистрирован: 18 фев 2021, 17:36
Сообщения: 11655
Откуда: Россия
Репутационный балл: 200
СпециалистСпециалистСпециалистСпециалистСпециалистСпециалистСпециалистСпециалистСпециалистСпециалист
Награды:
подробнее

Медали: 13

Активисту (1) Создание сайта (1) За 100 релизов (1) за 200 релизов (1) За 500 релизов (1)

За 1000 релизов (1) за 3000 релизов (1) за 4000 релизов (1) за 5000 релизов (1) Верный сид - за 5 Тб отданного (1)

Верный сид  за 10 Тб отданного (1) Верный сид  за 15 Тб отданного (1) Верный сид  за 20 Тб отданного (1)
Информация о фильме
Название: Космос: возможные миры
Оригинальное название: Cosmos: Possible Worlds
Год выхода: 2020
Жанр: документальный, научно-познавательный
Режиссер: Энн Друян, Брэннон Брага
В ролях: Нил Тайсон, Сет Макфарлейн, Патрик Стюарт, Вигго Мортенсен, Джадд Хёрш, Саша Саган

О фильме:
Время и пространства Вселенной невозможно измерить, а количество миров, которые предстоит изучить поистине велико. И тем не менее новый сезон сериала Космос предпринимает завораживающее путешествие к новым мирам – потерянным, и тем, что ещё предстоит открыть. Вы познакомитесь с исследователями, чьей смелости позавидует любой герой. Мы унесём вас далеко в будущее, за завесу реальности.



Страна: США
Студия: Cosmos Studios, Fuzzy Door Productions, National Geographic Channel
Продолжительность: ~00:44:00 серия
Перевод: Профессиональный (одноголосый, закадровый), Велес (серии 1-11), Pazl Voice (серии 12-13)

Файл
Кодек: h.264
Качество: BDRip 1080p
Видео: 1920x1080, 23.976 fps, ~7500 kbps
Звук:
Audio #1: Russian E-AC3, 2 ch, 48 kHz, 192 kbps
Audio #2: English Е-AC3, 6 ch, 48 kHz, 265 kbps
Субтитры: English SDH

***Примечание: Видео без логотипа National Geographic

Format : Matroska
Format version : Version 4
File size : 2.55 GiB
Duration : 43 min 56 s
Overall bit rate : 8 295 kb/s
Encoded date : UTC 2022-10-22 20:31:32
Writing application : mkvmerge v51.0.0 ('I Wish') 64-bit
Writing library : libebml v1.4.0 + libmatroska v1.6.2 / Lavf58.76.100

Video
ID : 1
Format : AVC
Format/Info : Advanced Video Codec
Format profile : High@L4.1
Format settings : CABAC / 4 Ref Frames
Format settings, CABAC : Yes
Format settings, Reference frames : 4 frames
Codec ID : V_MPEG4/ISO/AVC
Duration : 43 min 56 s
Bit rate : 7 843 kb/s
Width : 1 920 pixels
Height : 1 080 pixels
Display aspect ratio : 16:9
Frame rate mode : Constant
Frame rate : 23.976 (24000/1001) FPS
Color space : YUV
Chroma subsampling : 4:2:0
Bit depth : 8 bits
Scan type : Progressive
Bits/(Pixel*Frame) : 0.158
Stream size : 2.41 GiB (95%)
Writing library : x264 core 163 r3060 5db6aa6
Encoding settings : cabac=1 / ref=4 / deblock=1:-4:-4 / analyse=0x3:0x113 / me=umh / subme=11 / psy=1 / psy_rd=1.00:0.00 / mixed_ref=1 / me_range=48 / chroma_me=1 / trellis=2 / 8x8dct=1 / cqm=0 / deadzone=21,11 / fast_pskip=0 / chroma_qp_offset=-2 / threads=5 / lookahead_threads=1 / sliced_threads=0 / nr=0 / decimate=1 / interlaced=0 / bluray_compat=0 / constrained_intra=0 / bframes=8 / b_pyramid=2 / b_adapt=2 / b_bias=0 / direct=3 / weightb=1 / open_gop=0 / weightp=2 / keyint=240 / keyint_min=24 / scenecut=40 / intra_refresh=0 / rc_lookahead=60 / rc=2pass / mbtree=1 / bitrate=7843 / ratetol=1.0 / qcomp=0.60 / qpmin=0 / qpmax=69 / qpstep=4 / cplxblur=20.0 / qblur=0.5 / ip_ratio=1.40 / aq=1:1.00
Default : Yes
Forced : No
Color range : Limited
Color primaries : BT.709
Transfer characteristics : BT.709
Matrix coefficients : BT.709
ENCODING_INFO : H264 > X264 CRF-2P 18.0 Placebo

Audio #1
ID : 2
Format : E-AC-3
Format/Info : Enhanced AC-3
Commercial name : Dolby Digital Plus
Codec ID : A_EAC3
Duration : 43 min 56 s
Bit rate mode : Constant
Bit rate : 192 kb/s
Channel(s) : 2 channels
Channel layout : L R
Sampling rate : 48.0 kHz
Frame rate : 31.250 FPS (1536 SPF)
Compression mode : Lossy
Stream size : 60.4 MiB (2%)
Title : Велес
Language : Russian
Service kind : Complete Main
Default : Yes
Forced : No
ENCODING_INFO : AAC-LC > EAC3 CBR 192kbps

Audio #2
ID : 3
Format : E-AC-3
Format/Info : Enhanced AC-3
Commercial name : Dolby Digital Plus
Codec ID : A_EAC3
Duration : 43 min 56 s
Bit rate mode : Constant
Bit rate : 256 kb/s
Channel(s) : 6 channels
Channel layout : L R C LFE Ls Rs
Sampling rate : 48.0 kHz
Frame rate : 31.250 FPS (1536 SPF)
Compression mode : Lossy
Stream size : 80.5 MiB (3%)
Language : English
Service kind : Complete Main
Default : No
Forced : No
ENCODING_INFO : EAC3 > COPY Безопасное

Text
ID : 4
Format : UTF-8
Codec ID : S_TEXT/UTF8
Codec ID/Info : UTF-8 Plain Text
Duration : 43 min 12 s
Bit rate : 75 b/s
Count of elements : 615
Stream size : 24.0 KiB (0%)
Title : SDH
Language : English
Default : Yes
Forced : No
ENCODING_INFO : SUBRIP > COPY Быстрое
1 Лестница к звездам
2 О, всемогущий повелитель
3 Утерянный град жизни
4 Вавилов
5 Космический коннектом
6 Человек триллионов миров
7 Поиски на земле разумной жизни
8 Кассини, принесенный в жертву
9 Правдивая магия
10 Повесть о двух атомах
11 Недолговечный комфорт обитаемой зоны
12 Антропоцен — грядущая эпоха в истории Земли
13 Вероятный мир


У вас нет необходимых прав для просмотра вложений в этом сообщении.

_________________

Друзья не забываем оставить комментарий к материалу!


 Профиль  
Ответить с цитатой  
Зарегистрирован 23 окт 2022, 22:12
Статус √ Проверено Иваныч
Торрент Размер: 34.08 ГБ | Скачан: 245 раз | Торрент файл:
Приватный Нет (DHT включён)    Раздают: 94     Качают: 141     
Здоровье 66%
Поделиться:
Как качать?
Как качать?
Скачайте торрент и откройте его в своем клиенте
uTorrent

скачать программу,
дождитесь окончания загрузки.
Как заливать?
Как заливать?
X

Для того чтобы начать загружать материалы необходимо:
1.Быть зарегистрированным пользователем.
2. Выбрать желаемое направление по жанру.
3. Иметь желание работать на сайте.
4. Возраст должен быть 18+.
5. Желательно иметь опыт работы на других трекерах,
если нет такового не страшно поможем.

Инструкция

Показать сообщения за:  Поле сортировки  
Начать новую тему Ответить на тему  [ 1 сообщение ] 
Не забудьте оставить комментарий!


Запрещено категорически:
» Развязывать разборки (для этого есть ЛС)
» Оставлять комментарии, не относящиеся к содержанию материала.
» Добавлять спам, рекламу флуд..
К спаму относится:
1. Реклама любого направления.
2. Ссылки на сторонние ресурсы рекламного характера.
3. Ссылки на ресурсы порнографического направления.
4. Сылки на блоги и им подбным контeнтам.
» Запрещено оскорбление администрации, модераторов и пользователей.
» Часто писать с вкл. Caps Lock
»За нарушение правил бан или отключение без объяснений.
Уважайте чужой труд!

Правила могут дополняться и изменяться. С уважением Администрация.


Кто сейчас на торрент-трекере

Сейчас этот трекер просматривают: нет зарегистрированных пользователей и гости: 1


Вы не можете начинать темы
Вы не можете отвечать на сообщения
Вы не можете редактировать свои сообщения
Вы не можете удалять свои сообщения
Вы не можете добавлять вложения

Перейти:  
Создано на основе phpBB® Forum Software © phpBB Group
ppkBB3cker v.2.5 © 2008-2018 @ PPK | Icon Theme by Everaldo.com Design Studio
Русская поддержка phpBB


Мы не нарушаем авторские права!
Мнение по данному делу высказала ученая группа Европейского авторского общества (ECS).
Гиперссылка не должна расцениваться как неправомерное распространение произведения или иного объекта авторского права,
поскольку она «является предпосылкой для коммуникаций, а не самим материалом»
.
Яндекс.Метрика
Ресурс не предоставляет электронные версии произведений, а занимается лишь коллекционированием и каталогизацией ссылок, присылаемых и публикуемых на форуме нашими читателями.
Перед Судом Европейского союза были поставлены вопросы: Следует ли расценивать гиперссылку как распространение объекта авторского права третьим лицам? Является ли факт размещения ссылки нарушением авторского права? Мнение по данному делу высказала ученая группа Европейского авторского общества (ECS). По результатам научных исследований группа пришла к выводу, что гиперссылка не должна расцениваться как неправомерное распространение произведения или иного объекта авторского права, поскольку она «является предпосылкой для коммуникаций, а не самим материалом». Ученые отметили, что возможность делать ссылки на различные источники и документы является неотъемлемым основополагающим правом на свободу слова и высказывания.