[ 1 сообщение ] 
Автор Сообщение
Непрочитанное сообщениеДобавлено: 19 ноя 2022, 21:30  
Не в сети
Администратор
Администратор
Аватара пользователя

Раздал: 21.21 ТБ
Скачал: 1.97 ТБ
Ратио: 1010.647


Зарегистрирован: 18 фев 2021, 17:36
Сообщения: 11655
Откуда: Россия
Репутационный балл: 200
СпециалистСпециалистСпециалистСпециалистСпециалистСпециалистСпециалистСпециалистСпециалистСпециалист
Награды:
подробнее

Медали: 13

Активисту (1) Создание сайта (1) За 100 релизов (1) за 200 релизов (1) За 500 релизов (1)

За 1000 релизов (1) за 3000 релизов (1) за 4000 релизов (1) за 5000 релизов (1) Верный сид - за 5 Тб отданного (1)

Верный сид  за 10 Тб отданного (1) Верный сид  за 15 Тб отданного (1) Верный сид  за 20 Тб отданного (1)
#7
1899

1899

Год выпуска
2022
Страна
Германия, США, Dark Ways, Netflix, Studio Babelsberg, Volume, Framestore
Жанр
Драма, ужасы, триллер
Продолжительность
01:00:00
Перевод
Профессиональный многоголосый HDrezka Studio
Субтитры
Russian
***Примечание: Без рекламы.
В ролях

Эмили Бичем, Анейрин Барнард, Андреас Питшман, Мацей Мусял, Энтон Лессер, Мигель Бернардо, Жозе Пиментау, Жонас Блоке, Александр Виллауме, Клара Росагер, Матильда Олливье, Тино Мьюз, Лукас Люнгорд Тённесен, Ричард Хоуп, Янн Гаэль, Мария Эрвольтер, Александра Готшлих, Изабелла Вэй, Розали Крэйг, Бэн Эшенден, Мартин Грейс-Розенталь, Хейди Тоини, Хлоя Генрих, Исаак Дентлер

Режиссёр
Баран бо Одар


1899 год. Мигранты из Европы отправляются в Нью-Йорк на корабле, веря в светлое будущее и надеясь на изменения, которые принесет новый век. По пути в океане они находят дрейфующий лайнер, на котором находятся выжившие, считавшиеся пропавшими. И это событие превращает жизнь героев в сущий кошмар.

Сезон 1 | серия 1 - 7 из 8


Качество WEB-DL (1080p)
Формат MKV
Видео кодек AVC
Аудио кодек AC3,EAC3
Видео AVC, 1920x1080, 2 039 kb/s, 24.000fps
Аудио AC3, 48.0 KHz, 6 ch, 448kbps • Rus

General
Unique ID : 43632909547897055712310839609263786061 (0x20D364885FC4561C7DFC1C10C7CA084D)
Complete name : E:\Кино\1899.S01E01.WEBRip.1080p.rus.5.1.HDREZKA.STUDIO.mkv
Format : Matroska
Format version : Version 4
File size : 1.05 GiB
Duration : 1 h 0 min
Overall bit rate mode : Variable
Overall bit rate : 2 489 kb/s
Encoded date : UTC 2022-11-18 00:28:39
Writing application : mkvmerge v28.2.0 ('The Awakening') 64-bit
Writing library : libebml v1.3.6 + libmatroska v1.4.9

Video
ID : 1
Format : AVC
Format/Info : Advanced Video Codec
Format profile : High@L4.1
Format settings : CABAC / 1 Ref Frames
Format settings, CABAC : Yes
Format settings, Reference fra : 1 frame
Codec ID : V_MPEG4/ISO/AVC
Duration : 1 h 0 min
Bit rate mode : Variable
Bit rate : 2 039 kb/s
Maximum bit rate : 2 000 kb/s
Width : 1 920 pixels
Height : 1 080 pixels
Display aspect ratio : 16:9
Frame rate mode : Constant
Frame rate : 24.000 FPS
Color space : YUV
Chroma subsampling : 4:2:0
Bit depth : 8 bits
Scan type : Progressive
Bits/(Pixel*Frame) : 0.041
Stream size : 878 MiB (82%)
Default : Yes
Forced : No

Audio
ID : 2
Format : AC-3
Format/Info : Audio Coding 3
Commercial name : Dolby Digital
Codec ID : A_AC3
Duration : 1 h 0 min
Bit rate mode : Constant
Bit rate : 448 kb/s
Channel(s) : 6 channels
Channel layout : L R C LFE Ls Rs
Sampling rate : 48.0 kHz
Frame rate : 31.250 FPS (1536 SPF)
Compression mode : Lossy
Stream size : 193 MiB (18%)
Language : Russian
Service kind : Complete Main
Default : Yes
Forced : No

Text
ID : 3
Format : UTF-8
Codec ID : S_TEXT/UTF8
Codec ID/Info : UTF-8 Plain Text
Duration : 51 min 18 s
Bit rate : 28 b/s
Count of elements : 292
Stream size : 10.8 KiB (0%)
Language : Russian
Default : No
Forced : No
[yotube]aohIMg1LgsY[/yotube]


У вас нет необходимых прав для просмотра вложений в этом сообщении.

_________________

Друзья не забываем оставить комментарий к материалу!


 Профиль  
Ответить с цитатой  
Сейчас вы смотрите 1899 / 1899 (1 Сезон / 1 - 7 Серия из 8) ( Баран бо Одар) [2022, Драма, ужасы, триллер, WEB-DL (1080p)], не забываем оставлять комментарии!
Зарегистрирован 19 ноя 2022, 21:30
Статус √ Проверено Иваныч
Торрент Размер: 7.54 ГБ | Скачан: 0 раз | Торрент файл:
Приватный Нет (DHT включён)    Раздают:   Качают:    
Здоровье ???%
Поделиться:
Как качать?
Как качать?
Скачайте торрент и откройте его в своем клиенте
uTorrent

скачать программу,
дождитесь окончания загрузки.
Как заливать?
Как заливать?
X

Для того чтобы начать загружать материалы необходимо:
1.Быть зарегистрированным пользователем.
2. Выбрать желаемое направление по жанру.
3. Иметь желание работать на сайте.
4. Возраст должен быть 18+.
5. Желательно иметь опыт работы на других трекерах,
если нет такового не страшно поможем.

Инструкция

Показать сообщения за:  Поле сортировки  
Начать новую тему Ответить на тему  [ 1 сообщение ] 
Не забудьте оставить комментарий!


Запрещено категорически:
» Развязывать разборки (для этого есть ЛС)
» Оставлять комментарии, не относящиеся к содержанию материала.
» Добавлять спам, рекламу флуд..
К спаму относится:
1. Реклама любого направления.
2. Ссылки на сторонние ресурсы рекламного характера.
3. Ссылки на ресурсы порнографического направления.
4. Сылки на блоги и им подбным контeнтам.
» Запрещено оскорбление администрации, модераторов и пользователей.
» Часто писать с вкл. Caps Lock
»За нарушение правил бан или отключение без объяснений.
Уважайте чужой труд!

Правила могут дополняться и изменяться. С уважением Администрация.


Кто сейчас на торрент-трекере

Сейчас этот трекер просматривают: нет зарегистрированных пользователей и гости: 1


Вы не можете начинать темы
Вы не можете отвечать на сообщения
Вы не можете редактировать свои сообщения
Вы не можете удалять свои сообщения
Вы не можете добавлять вложения

Перейти:  
cron
Создано на основе phpBB® Forum Software © phpBB Group
ppkBB3cker v.2.5 © 2008-2018 @ PPK | Icon Theme by Everaldo.com Design Studio
Русская поддержка phpBB


Мы не нарушаем авторские права!
Мнение по данному делу высказала ученая группа Европейского авторского общества (ECS).
Гиперссылка не должна расцениваться как неправомерное распространение произведения или иного объекта авторского права,
поскольку она «является предпосылкой для коммуникаций, а не самим материалом»
.
Яндекс.Метрика
Ресурс не предоставляет электронные версии произведений, а занимается лишь коллекционированием и каталогизацией ссылок, присылаемых и публикуемых на форуме нашими читателями.
Перед Судом Европейского союза были поставлены вопросы: Следует ли расценивать гиперссылку как распространение объекта авторского права третьим лицам? Является ли факт размещения ссылки нарушением авторского права? Мнение по данному делу высказала ученая группа Европейского авторского общества (ECS). По результатам научных исследований группа пришла к выводу, что гиперссылка не должна расцениваться как неправомерное распространение произведения или иного объекта авторского права, поскольку она «является предпосылкой для коммуникаций, а не самим материалом». Ученые отметили, что возможность делать ссылки на различные источники и документы является неотъемлемым основополагающим правом на свободу слова и высказывания.
cron cron