[ 1 сообщение ] 
Автор Сообщение
Непрочитанное сообщениеДобавлено: 28 ноя 2022, 05:12  
Не в сети
Администратор
Администратор
Аватара пользователя

Раздал: 21.21 ТБ
Скачал: 1.97 ТБ
Ратио: 1010.650


Зарегистрирован: 18 фев 2021, 17:36
Сообщения: 11798
Откуда: Россия
Репутационный балл: 200
СпециалистСпециалистСпециалистСпециалистСпециалистСпециалистСпециалистСпециалистСпециалистСпециалист
Награды:
подробнее

Медали: 13

Активисту (1) Создание сайта (1) За 100 релизов (1) за 200 релизов (1) За 500 релизов (1)

За 1000 релизов (1) за 3000 релизов (1) за 4000 релизов (1) за 5000 релизов (1) Верный сид - за 5 Тб отданного (1)

Верный сид  за 10 Тб отданного (1) Верный сид  за 15 Тб отданного (1) Верный сид  за 20 Тб отданного (1)
Год выпуска: 2022
Страна: США
Жанр: Фэнтези, боевик, драма
Продолжительность: ~00:42:41 серия
Сезоны / серии: 2 сезон / 1 - 8 серия из 8
Перевод: Профессиональный (многоголосый закадровый) [HDRezka Studio]
Субтитры: Russian (Forced |HDrezka Studio|, Full ), English

Режиссер: Джет Уилкинсон, Саймон Бэрри, Матиас Хендл
В ролях: Тоя Тернер, Альба Баптиста, Лорена Андреа, Кристина Тонтери-Янг, Текла Рютен, Оливия Делькан, Жоаким ди Алмейда, Сильвия Де Фанти, Тристан Ульоа, Питер Де Джерси

Описание:Обычная девушка Эйва неожиданно для себя оказывается втянута в древнюю войну таинственного ордена с силами зла. Проснувшись в морге, она обнаруживает у себя невероятные способности. Поиск ответов приводит Эйву к ордену Крестообразного Меча — секретному обществу монахинь-воинов, поклявшихся защищать мир ото зла. Теперь она должна найти баланс между новыми обязанностями спасительницы человечества и жизнью обычного подростка.



Качество: WEB-DL 1080p
Формат: MKV
Видео кодек: AVC
Аудио кодеk: AC3, E-AC3
Видео: AVC, 1920x1080 (16:9), 2 844 - 4 766 kbps (0.057 b/px), 23,976 fps
Аудио 1: AC3, 448 kbps (CBR), 48.0 KHz (16 bits), 6 ch, Russian
Аудио 2: E-AC3, 768 kbps (CBR), 48.0 KHz, 6 ch, English
Примечание: Релиз без рекламы!

Общее
Уникальный идентификатор : 158191933332836719328053564394866096129 (0x7702A87BA4439821B4E92783281A3801)
Полное имя : D:фильмы и сериалыWarrior.Nun.S02.1080pWarrior.Nun.S02E01.1080p.mkv
Формат : Matroska
Версия формата : Version 4
Размер файла : 1,21 Гбайт
Продолжительность : 42 м. 41 с.
Режим общего битрейта : Переменный
Общий поток : 4 062 Кбит/сек
Дата кодирования : UTC 2022-11-24 09:43:46
Программа кодирования : mkvmerge v35.0.0 ('All The Love In The World') 64-bit
Библиотека кодирования : libebml v1.3.9 + libmatroska v1.5.2

Видео
Идентификатор : 1
Формат : AVC
Формат/Информация : Advanced Video Codec
Профиль формата : Main@L4
Настройки формата : CABAC / 3 Ref Frames
Параметр CABAC формата : Да
Параметр RefFrames формата : 3 кадра
Идентификатор кодека : V_MPEG4/ISO/AVC
Продолжительность : 42 м. 41 с.
Вид битрейта : Переменный
Битрейт : 2 844 Кбит/сек
Номинальный битрейт : 4 420 Кбит/сек
Максимальный битрейт : 6 630 Кбит/сек
Ширина : 1 920 пикселей
Высота : 1 080 пикселей
Соотношение сторон : 16:9
Режим частоты кадров : Постоянный
Частота кадров : 23,976 (24000/1001) кадра/сек
Цветовое пространство : YUV
Субдискретизация насыщенности : 4:2:0
Битовая глубина : 8 бит
Тип развёртки : Прогрессивная
Бит/(Пиксели*Кадры) : 0.057
Размер потока : 868 Мбайт (70%)
Библиотека кодирования : x264 core 148 r2727 7d026e8
Настройки программы : cabac=1 / ref=3 / deblock=1:0:0 / analyse=0x1:0x111 / me=umh / subme=10 / psy=1 / psy_rd=1.00:0.00 / mixed_ref=1 / me_range=24 / chroma_me=1 / trellis=2 / 8x8dct=0 / cqm=0 / deadzone=21,11 / fast_pskip=1 / chroma_qp_offset=-2 / threads=6 / lookahead_threads=1 / sliced_threads=0 / nr=0 / decimate=1 / interlaced=0 / bluray_compat=0 / stitchable=1 / constrained_intra=0 / bframes=2 / b_pyramid=0 / b_adapt=2 / b_bias=0 / direct=3 / weightb=1 / open_gop=0 / weightp=2 / keyint=250 / keyint_min=23 / scenecut=0 / intra_refresh=0 / rc_lookahead=48 / rc=2pass / mbtree=1 / bitrate=4420 / ratetol=1.0 / qcomp=0.50 / qpmin=6 / qpmax=51 / qpstep=4 / cplxblur=20.0 / qblur=0.5 / vbv_maxrate=6630 / vbv_bufsize=8840 / nal_hrd=vbr / filler=0 / ip_ratio=1.40 / aq=1:1.00
Язык : English
Default : Да
Forced : Нет

Аудио #1
Идентификатор : 2
Формат : AC-3
Формат/Информация : Audio Coding 3
Коммерческое название : Dolby Digital
Идентификатор кодека : A_AC3
Продолжительность : 42 м. 41 с.
Вид битрейта : Постоянный
Битрейт : 448 Кбит/сек
Каналы : 6 каналов
Channel layout : L R C LFE Ls Rs
Частота : 48,0 КГц
Частота кадров : 31,250 кадров/сек (1536 SPF)
Метод сжатия : С потерями
Размер потока : 137 Мбайт (11%)
Заголовок : HDR
Язык : Russian
Service kind : Complete Main
Default : Да
Forced : Нет

Аудио #2
Идентификатор : 3
Формат : E-AC-3 JOC
Формат/Информация : Enhanced AC-3 with Joint Object Coding
Коммерческое название : Dolby Digital Plus with Dolby Atmos
Идентификатор кодека : A_EAC3
Продолжительность : 42 м. 41 с.
Вид битрейта : Постоянный
Битрейт : 768 Кбит/сек
Каналы : 6 каналов
Channel layout : L R C LFE Ls Rs
Частота : 48,0 КГц
Частота кадров : 31,250 кадров/сек (1536 SPF)
Метод сжатия : С потерями
Размер потока : 234 Мбайт (19%)
Язык : English
Service kind : Complete Main
Default : Нет
Forced : Нет
Complexity index : 16
Number of dynamic objects : 15
Bed channel count : 1 канал
Bed channel configuration : LFE

Текст #1
Идентификатор : 4
Формат : UTF-8
Идентификатор кодека : S_TEXT/UTF8
Идентификатор кодека/Информация : UTF-8 Plain Text
Продолжительность : 38 м. 53 с.
Битрейт : 8 бит/сек
Count of elements : 58
Размер потока : 2,46 Кбайт (0%)
Заголовок : fors
Язык : Russian
Default : Да
Forced : Нет

Текст #2
Идентификатор : 5
Формат : UTF-8
Идентификатор кодека : S_TEXT/UTF8
Идентификатор кодека/Информация : UTF-8 Plain Text
Продолжительность : 41 м. 4 с.
Битрейт : 93 бит/сек
Count of elements : 532
Размер потока : 28,0 Кбайт (0%)
Язык : Russian
Default : Нет
Forced : Нет

Текст #3
Идентификатор : 6
Формат : UTF-8
Идентификатор кодека : S_TEXT/UTF8
Идентификатор кодека/Информация : UTF-8 Plain Text
Продолжительность : 25 м. 29 с.
Битрейт : 6 бит/сек
Count of elements : 31
Размер потока : 1,21 Кбайт (0%)
Заголовок : Forced
Язык : English
Default : Нет
Forced : Нет

Текст #4
Идентификатор : 7
Формат : UTF-8
Идентификатор кодека : S_TEXT/UTF8
Идентификатор кодека/Информация : UTF-8 Plain Text
Продолжительность : 39 м. 6 с.
Битрейт : 64 бит/сек
Count of elements : 566
Размер потока : 18,4 Кбайт (0%)
Язык : English
Default : Нет
Forced : Нет

Текст #5
Идентификатор : 8
Формат : UTF-8
Идентификатор кодека : S_TEXT/UTF8
Идентификатор кодека/Информация : UTF-8 Plain Text
Продолжительность : 39 м. 20 с.
Битрейт : 79 бит/сек
Count of elements : 730
Размер потока : 22,9 Кбайт (0%)
Заголовок : SDH
Язык : English
Default : Нет
Forced : Нет

Меню
00:39:28.000 : en:End Credits



У вас нет необходимых прав для просмотра вложений в этом сообщении.

_________________

Друзья не забываем оставить комментарий к материалу!


 Профиль  
Ответить с цитатой  
Сейчас вы смотрите Монахиня-воин / Warrior Nun ( 2 Сезон / 1 - 8 Серия из 8) [2022, WEB-DL 1080p ] MVO (HDRezka Studio), не забываем оставлять комментарии!
Зарегистрирован 28 ноя 2022, 05:12
Статус √ Проверено Иваныч
Торрент Размер: 11.46 ГБ | Скачан: 215 раз | Торрент файл:
Приватный Нет (DHT включён)    Раздают: 40     Качают: 28     
Здоровье 100%
Поделиться:
Как качать?
Как качать?
Скачайте торрент и откройте его в своем клиенте
uTorrent

скачать программу,
дождитесь окончания загрузки.
Как заливать?
Как заливать?
X

Для того чтобы начать загружать материалы необходимо:
1.Быть зарегистрированным пользователем.
2. Выбрать желаемое направление по жанру.
3. Иметь желание работать на сайте.
4. Возраст должен быть 18+.
5. Желательно иметь опыт работы на других трекерах,
если нет такового не страшно поможем.

Инструкция

Показать сообщения за:  Поле сортировки  
Начать новую тему Ответить на тему  [ 1 сообщение ] 
Не забудьте оставить комментарий!


Запрещено категорически:
» Развязывать разборки (для этого есть ЛС)
» Оставлять комментарии, не относящиеся к содержанию материала.
» Добавлять спам, рекламу флуд..
К спаму относится:
1. Реклама любого направления.
2. Ссылки на сторонние ресурсы рекламного характера.
3. Ссылки на ресурсы порнографического направления.
4. Сылки на блоги и им подбным контeнтам.
» Запрещено оскорбление администрации, модераторов и пользователей.
» Часто писать с вкл. Caps Lock
»За нарушение правил бан или отключение без объяснений.
Уважайте чужой труд!

Правила могут дополняться и изменяться. С уважением Администрация.


Кто сейчас на торрент-трекере

Сейчас этот трекер просматривают: нет зарегистрированных пользователей и гости: 1


Вы не можете начинать темы
Вы не можете отвечать на сообщения
Вы не можете редактировать свои сообщения
Вы не можете удалять свои сообщения
Вы не можете добавлять вложения

Перейти:  
cron
Создано на основе phpBB® Forum Software © phpBB Group
ppkBB3cker v.2.5 © 2008-2018 @ PPK | Icon Theme by Everaldo.com Design Studio
Русская поддержка phpBB


Мы не нарушаем авторские права!
Мнение по данному делу высказала ученая группа Европейского авторского общества (ECS).
Гиперссылка не должна расцениваться как неправомерное распространение произведения или иного объекта авторского права,
поскольку она «является предпосылкой для коммуникаций, а не самим материалом»
.
Яндекс.Метрика
Ресурс не предоставляет электронные версии произведений, а занимается лишь коллекционированием и каталогизацией ссылок, присылаемых и публикуемых на форуме нашими читателями.
Перед Судом Европейского союза были поставлены вопросы: Следует ли расценивать гиперссылку как распространение объекта авторского права третьим лицам? Является ли факт размещения ссылки нарушением авторского права? Мнение по данному делу высказала ученая группа Европейского авторского общества (ECS). По результатам научных исследований группа пришла к выводу, что гиперссылка не должна расцениваться как неправомерное распространение произведения или иного объекта авторского права, поскольку она «является предпосылкой для коммуникаций, а не самим материалом». Ученые отметили, что возможность делать ссылки на различные источники и документы является неотъемлемым основополагающим правом на свободу слова и высказывания.