[ 1 сообщение ] 
Автор Сообщение
Непрочитанное сообщениеДобавлено: 19 ноя 2022, 14:10  
Не в сети
Администратор
Администратор
Аватара пользователя

Раздал: 21.21 ТБ
Скачал: 1.97 ТБ
Ратио: 1010.650


Зарегистрирован: 18 фев 2021, 17:36
Сообщения: 11798
Откуда: Россия
Репутационный балл: 200
СпециалистСпециалистСпециалистСпециалистСпециалистСпециалистСпециалистСпециалистСпециалистСпециалист
Награды:
подробнее

Медали: 13

Активисту (1) Создание сайта (1) За 100 релизов (1) за 200 релизов (1) За 500 релизов (1)

За 1000 релизов (1) за 3000 релизов (1) за 4000 релизов (1) за 5000 релизов (1) Верный сид - за 5 Тб отданного (1)

Верный сид  за 10 Тб отданного (1) Верный сид  за 15 Тб отданного (1) Верный сид  за 20 Тб отданного (1)
Оригинальное наименование: Эпидемия (Вонгозеро)
Категория: Триллер, фильм-катастрофа, фэнтези, экранизация, драма, медицина
Произведено: Россия, 1-2-3 Production

Режиссер постановщик: Дмитрий Тюрин
В главных ролях: Александр Робак, Кирилл Кяро, Марьяна Спивак, Наталья Земцова, Юра Борисов, Эльдар Калимулин, Виктория Агалакова, Савелий Кудряшов, Виктория Дроздова, Никита Еленев, Виктория Клинкова, Юлия Ендроссек, Аскар Ильясов, Дарья Екамасова, Сергей Шнырёв, Александр Яцко, Иван Босильчич, Юрий Касмынин, Эрик Абрамович, Надежда Игошина, Олег Евтеев, Иван Ивашов, Владимир Сарапульцев, Александр Кижаев, Александра Кижаева, Никита Языков, Сергей Горобченко, Роман Маякин, Вячеслав Щенин, Алексей Усольцев, Ярослав Гугнин, Ирина Лукина (II), Екатерина Виноградова, Александр Крайнов, Степан Щеглов, Евгений Крылов, Бесо Гатаев, Дмитрий Гудочкин, Николай Ясулович, Валерий Скорокосов, Сергей Колбинцев, Вадим Гусев (II)

Описание: Во 2 сезоне, едва оправившись от смерти Ани, герои с трудом переживают зиму в карельских лесах. Однако обстоятельства вынуждают их покинуть убежище. На пути они встречают группу молодых людей под предводительством бывшего чистильщика Жени, и все вместе отправляются в лагерь беженцев в Европе. Но это направление тоже оказывается закрытым, и герои меняют курс на Соловецкий монастырь, преодолевая новые испытания и встречая выживших. Удастся ли им найти место, куда не добралась эпидемия? Основано на романе Яны Вагнер "Вонгозеро".



Видео данные: XviD, ~ 1615 Кбит/с, 720x304, 25 кадр/с
Аудио данные: AC3, 2 ch, 192 Кбит/с
Перевод: Оригинал
Продолжительность: 9 х 00:45:00
Субтитры: Русские (1-2, 5 серии) присутствуют, на иностранную речь

General
Complete name : C:09.Эпидемия (Вонгозеро) (Расширенная режиссёрская версия).s02.E01.(2022).HDTVRip.by.Nicodem.Mytorrnado club.avi
Format : AVI
Format/Info : Audio Video Interleave
File size : 807 MiB
Duration : 1h 2mn
Overall bit rate : 1 817 Kbps
Writing application : VirtualDubMod 1.5.10.3 | www.virtualdub-fr.org || (build 2550/release)
Writing library : VirtualDubMod build 2550/release

Video
ID : 0
Format : MPEG-4 Visual
Format profile : Advanced Simple@L5
Format settings, BVOP : 1
Format settings, QPel : No
Format settings, GMC : No warppoints
Format settings, Matrix : Custom
Codec ID : XVID
Codec ID/Hint : XviD
Duration : 1h 2mn
Bit rate : 1 615 Kbps
Width : 720 pixels
Height : 304 pixels
Display aspect ratio : 2.35:1
Frame rate : 25.000 fps
Color space : YUV
Chroma subsampling : 4:2:0
Bit depth : 8 bits
Scan type : Progressive
Compression mode : Lossy
Bits/(Pixel*Frame) : 0.295
Stream size : 717 MiB (89%)
Writing library : XviD 73

Audio
ID : 1
Format : AC-3
Format/Info : Audio Coding 3
Mode extension : CM (complete main)
Codec ID : 2000
Duration : 1h 2mn
Bit rate mode : Constant
Bit rate : 192 Kbps
Channel(s) : 2 channels
Channel positions : Front: L R
Sampling rate : 48.0 KHz
Bit depth : 16 bits
Compression mode : Lossy
Stream size : 85.2 MiB (11%)
Alignment : Split accross interleaves
Interleave, duration : 40 ms (1.00 video frame)
Interleave, preload duration : 500 ms



У вас нет необходимых прав для просмотра вложений в этом сообщении.

_________________

Друзья не забываем оставить комментарий к материалу!


 Профиль  
Ответить с цитатой  
Сейчас вы смотрите Эпидемия (Вонгозеро) (2 сезон: 1-9 серии из 9) (2022) HDTVRip | Расширенная режиссёрская версия, не забываем оставлять комментарии!
Зарегистрирован 19 ноя 2022, 14:10
Статус √ Проверено Иваныч
Торрент Размер: 5.51 ГБ | Скачан: 41 раз | Торрент файл:
Приватный Нет (DHT включён)    Раздают: 39     Качают: 27     
Здоровье 100%
Поделиться:
Как качать?
Как качать?
Скачайте торрент и откройте его в своем клиенте
uTorrent

скачать программу,
дождитесь окончания загрузки.
Как заливать?
Как заливать?
X

Для того чтобы начать загружать материалы необходимо:
1.Быть зарегистрированным пользователем.
2. Выбрать желаемое направление по жанру.
3. Иметь желание работать на сайте.
4. Возраст должен быть 18+.
5. Желательно иметь опыт работы на других трекерах,
если нет такового не страшно поможем.

Инструкция

Показать сообщения за:  Поле сортировки  
Начать новую тему Ответить на тему  [ 1 сообщение ] 
Не забудьте оставить комментарий!


Запрещено категорически:
» Развязывать разборки (для этого есть ЛС)
» Оставлять комментарии, не относящиеся к содержанию материала.
» Добавлять спам, рекламу флуд..
К спаму относится:
1. Реклама любого направления.
2. Ссылки на сторонние ресурсы рекламного характера.
3. Ссылки на ресурсы порнографического направления.
4. Сылки на блоги и им подбным контeнтам.
» Запрещено оскорбление администрации, модераторов и пользователей.
» Часто писать с вкл. Caps Lock
»За нарушение правил бан или отключение без объяснений.
Уважайте чужой труд!

Правила могут дополняться и изменяться. С уважением Администрация.


Кто сейчас на торрент-трекере

Сейчас этот трекер просматривают: нет зарегистрированных пользователей и гости: 1


Вы не можете начинать темы
Вы не можете отвечать на сообщения
Вы не можете редактировать свои сообщения
Вы не можете удалять свои сообщения
Вы не можете добавлять вложения

Перейти:  
cron
Создано на основе phpBB® Forum Software © phpBB Group
ppkBB3cker v.2.5 © 2008-2018 @ PPK | Icon Theme by Everaldo.com Design Studio
Русская поддержка phpBB


Мы не нарушаем авторские права!
Мнение по данному делу высказала ученая группа Европейского авторского общества (ECS).
Гиперссылка не должна расцениваться как неправомерное распространение произведения или иного объекта авторского права,
поскольку она «является предпосылкой для коммуникаций, а не самим материалом»
.
Яндекс.Метрика
Ресурс не предоставляет электронные версии произведений, а занимается лишь коллекционированием и каталогизацией ссылок, присылаемых и публикуемых на форуме нашими читателями.
Перед Судом Европейского союза были поставлены вопросы: Следует ли расценивать гиперссылку как распространение объекта авторского права третьим лицам? Является ли факт размещения ссылки нарушением авторского права? Мнение по данному делу высказала ученая группа Европейского авторского общества (ECS). По результатам научных исследований группа пришла к выводу, что гиперссылка не должна расцениваться как неправомерное распространение произведения или иного объекта авторского права, поскольку она «является предпосылкой для коммуникаций, а не самим материалом». Ученые отметили, что возможность делать ссылки на различные источники и документы является неотъемлемым основополагающим правом на свободу слова и высказывания.