[ 1 сообщение ] 
Автор Сообщение
 Заголовок сообщения: Право на свободу [S01] (2022) WEB-DL 1080p
Непрочитанное сообщениеДобавлено: 25 ноя 2022, 06:11  
Не в сети
Администратор
Администратор
Аватара пользователя

Раздал: 21.21 ТБ
Скачал: 1.97 ТБ
Ратио: 1010.650


Зарегистрирован: 18 фев 2021, 17:36
Сообщения: 11770
Откуда: Россия
Репутационный балл: 200
СпециалистСпециалистСпециалистСпециалистСпециалистСпециалистСпециалистСпециалистСпециалистСпециалист
Награды:
подробнее

Медали: 13

Активисту (1) Создание сайта (1) За 100 релизов (1) за 200 релизов (1) За 500 релизов (1)

За 1000 релизов (1) за 3000 релизов (1) за 4000 релизов (1) за 5000 релизов (1) Верный сид - за 5 Тб отданного (1)

Верный сид  за 10 Тб отданного (1) Верный сид  за 15 Тб отданного (1) Верный сид  за 20 Тб отданного (1)
Информация о сериале
Оригинальное название: Право на свободу
Год выхода: 2022
Жанр: Детектив, драма
Режиссер: Артём Дубра
В ролях: Игорь Скляр, Илья Малаков, Кирилл Кяро, Анна Каменкова, Валерия Куликова, Варвара Феофанова, Алексей Розин, Олег Чугунов, Элеонора Мировская, Устин Манченко, Евгений Чернорай

Автор релиза: 25Kuzmich
Без рекламы

О сериале: Успешного программиста Антона из Краснодара пригласили работать в крупную IT-компанию на Кипре, но уже по дороге в аэропорт он узнает, что его мама, с которой он общался редко, пропала. Антон разворачивает такси, а вместе с ним разворачивается и вся его жизнь. Герою предстоит узнать немало шокирующих фактов о рабовладельческих мафиях, подпольных организациях, а также познакомиться с волонтерами, которые неравнодушны к людям и пытаются помочь всем, кому могут, даже если сами оказываются в опасности. Антон находит поддержку в лице Кирилла, жёсткого и прямого начальника волонтерской организации «Либертас», помогающей людям; Вики, закрытой девушки, которая постоянно рискует и спасает всех, кроме себя; и Ильи, племянника Кирилла, юморного и легкого парня, который хочет быть блогером и помогать людям через интернет.


Выпущено: Россия, Amalgama Studio
Продолжительность: 8 x ~ 00:28:00
Перевод: Не требуется

Качество: WEB-DL 1080p
Видео: MPEG-4 AVC, ~ 4000 Кбит/с, 1920x1080
Аудио: AC3, 2 ch, 192 Кбит/с
Язык: Русский
Субтитры: Нет


General
Unique ID : 61526316438464149763176180522752225823 (0x2E49899AE3943103D1C7124ABD29321F)
Complete name : Pravo.na.svobodu.S01.WEB-DL.1080.25KuzmichPravo.na.svobodu.s01.e01.WEB-DL.1080.25Kuzmich.mkv
Format : Matroska
Format version : Version 4
File size : 828 MiB
Duration : 27 min 33 s
Overall bit rate mode : Variable
Overall bit rate : 4 199 kb/s
Encoded date : UTC 2022-10-20 00:32:51
Writing application : mkvmerge v71.1.0 ('Fortitude') 64-bit
Writing library : libebml v1.4.4 + libmatroska v1.7.1
Cover : Yes
Attachments : cover (02).jpg

Video
ID : 1
Format : AVC
Format/Info : Advanced Video Codec
Format profile : High@L4.1
Format settings : CABAC / 3 Ref Frames
Format settings, CABAC : Yes
Format settings, Reference : 3 frames
Codec ID : V_MPEG4/ISO/AVC
Duration : 27 min 33 s
Bit rate mode : Variable
Bit rate : 4 003 kb/s
Maximum bit rate : 40.0 Mb/s
Width : 1 920 pixels
Height : 1 080 pixels
Display aspect ratio : 16:9
Frame rate mode : Constant
Frame rate : 25.000 FPS
Color space : YUV
Chroma subsampling : 4:2:0
Bit depth : 8 bits
Scan type : Progressive
Bits/(Pixel*Frame) : 0.077
Stream size : 789 MiB (95%)
Default : Yes
Forced : No

Audio
ID : 2
Format : AC-3
Format/Info : Audio Coding 3
Commercial name : Dolby Digital
Codec ID : A_AC3
Duration : 27 min 32 s
Bit rate mode : Constant
Bit rate : 192 kb/s
Channel(s) : 2 channels
Channel layout : L R
Sampling rate : 48.0 kHz
Frame rate : 31.250 FPS (1536 SPF)
Compression mode : Lossy
Stream size : 37.8 MiB (5%)
Language : Russian
Service kind : Complete Main
Default : Yes
Forced : No


У вас нет необходимых прав для просмотра вложений в этом сообщении.

_________________

Друзья не забываем оставить комментарий к материалу!


 Профиль  
Ответить с цитатой  
Сейчас вы смотрите Право на свободу [S01] (2022) WEB-DL 1080p, не забываем оставлять комментарии!
Зарегистрирован 25 ноя 2022, 06:11
Статус √ Проверено Иваныч
Торрент Размер: 6.72 ГБ | Скачан: 1124 раз | Торрент файл:
Приватный Нет (DHT включён)    Раздают: 599     Качают: 450     
Здоровье 100%
Поделиться:
Как качать?
Как качать?
Скачайте торрент и откройте его в своем клиенте
uTorrent

скачать программу,
дождитесь окончания загрузки.
Как заливать?
Как заливать?
X

Для того чтобы начать загружать материалы необходимо:
1.Быть зарегистрированным пользователем.
2. Выбрать желаемое направление по жанру.
3. Иметь желание работать на сайте.
4. Возраст должен быть 18+.
5. Желательно иметь опыт работы на других трекерах,
если нет такового не страшно поможем.

Инструкция

Показать сообщения за:  Поле сортировки  
Начать новую тему Ответить на тему  [ 1 сообщение ] 
Не забудьте оставить комментарий!


Запрещено категорически:
» Развязывать разборки (для этого есть ЛС)
» Оставлять комментарии, не относящиеся к содержанию материала.
» Добавлять спам, рекламу флуд..
К спаму относится:
1. Реклама любого направления.
2. Ссылки на сторонние ресурсы рекламного характера.
3. Ссылки на ресурсы порнографического направления.
4. Сылки на блоги и им подбным контeнтам.
» Запрещено оскорбление администрации, модераторов и пользователей.
» Часто писать с вкл. Caps Lock
»За нарушение правил бан или отключение без объяснений.
Уважайте чужой труд!

Правила могут дополняться и изменяться. С уважением Администрация.


Кто сейчас на торрент-трекере

Сейчас этот трекер просматривают: нет зарегистрированных пользователей и гости: 2


Вы не можете начинать темы
Вы не можете отвечать на сообщения
Вы не можете редактировать свои сообщения
Вы не можете удалять свои сообщения
Вы не можете добавлять вложения

Перейти:  
cron
Создано на основе phpBB® Forum Software © phpBB Group
ppkBB3cker v.2.5 © 2008-2018 @ PPK | Icon Theme by Everaldo.com Design Studio
Русская поддержка phpBB


Мы не нарушаем авторские права!
Мнение по данному делу высказала ученая группа Европейского авторского общества (ECS).
Гиперссылка не должна расцениваться как неправомерное распространение произведения или иного объекта авторского права,
поскольку она «является предпосылкой для коммуникаций, а не самим материалом»
.
Яндекс.Метрика
Ресурс не предоставляет электронные версии произведений, а занимается лишь коллекционированием и каталогизацией ссылок, присылаемых и публикуемых на форуме нашими читателями.
Перед Судом Европейского союза были поставлены вопросы: Следует ли расценивать гиперссылку как распространение объекта авторского права третьим лицам? Является ли факт размещения ссылки нарушением авторского права? Мнение по данному делу высказала ученая группа Европейского авторского общества (ECS). По результатам научных исследований группа пришла к выводу, что гиперссылка не должна расцениваться как неправомерное распространение произведения или иного объекта авторского права, поскольку она «является предпосылкой для коммуникаций, а не самим материалом». Ученые отметили, что возможность делать ссылки на различные источники и документы является неотъемлемым основополагающим правом на свободу слова и высказывания.
cron cron