[ 1 сообщение ] 
Автор Сообщение
 Заголовок сообщения: Барбоскины Team (2022) WEB-DLRip
Непрочитанное сообщениеДобавлено: 06 окт 2022, 06:07  
Не в сети
Администратор
Администратор
Аватара пользователя

Раздал: 21.12 ТБ
Скачал: 1.97 ТБ
Ратио: 1010.603


Зарегистрирован: 18 фев 2021, 17:36
Сообщения: 11201
Откуда: Россия
Репутационный балл: 200
СпециалистСпециалистСпециалистСпециалистСпециалистСпециалистСпециалистСпециалистСпециалистСпециалист
Награды:
подробнее

Медали: 13

Активисту (1) Создание сайта (1) За 100 релизов (1) за 200 релизов (1) За 500 релизов (1)

За 1000 релизов (1) за 3000 релизов (1) за 4000 релизов (1) за 5000 релизов (1) Верный сид - за 5 Тб отданного (1)

Верный сид  за 10 Тб отданного (1) Верный сид  за 15 Тб отданного (1) Верный сид  за 20 Тб отданного (1)
Барбоскины Team

Год выпуска: 2022
Выпущено: Россия / инокомпания CTB / СТВ, Анимационная студия «Мельница»
Жанр: Музыкальный, Мультфильм
Режиссер: Елена Галдобина, Федор Дмитриев
В ролях: Ксения Бржезовская, Екатерина Гороховская, Юлия Зоркина, Мария Цветкова-Овсянникова, Михаил Черняк, Вадим Бочанов, Валерий Смекалов, Иван Чабан, Ирина Обрезкова, Дмитрий Высоцкий, Михаил Хрусталёв

О фильме: Барбоскины мечтают прославиться и покорить Интернет. Они умеют танцевать и снимать смешные ролики, которые собирают лайки и просмотры, но до настоящих звезд Интернета, таких как Кошечка Кэт, им еще далеко. По случайности Кэт становится их соседкой, между ними завязывается не только дружба, но и соперничество. Наставница Кэт не очень рада конкурентам и пытается внести разлад в дружную семью.



Продолжительность: 01:25:04
Перевод: Не требуется
Субтитры: Нет.


Формат: AVI
Качество: WEB-DLRip
Видео: 720x304 (2,35:1), 24,000 fps, XviD build 67 ~ 1999 kbps
Аудио: 48 kHz, AC3 Dolby Digital, 3/2 (L,C,R,l,r) + LFE ch, ~ 448 kbps | RUS |


General
Complete name : E:TorrentsБарбоскины.Team.2022.WEB-DLRip_от New-Team_by_JNS82.avi
Format : AVI
Format/Info : Audio Video Interleave
File size : 1.46 GiB
Duration : 1 h 25 min
Overall bit rate : 2 456 kb/s
Movie name : Барбоскины.Team. 2022
Director : Елена Галдобина, Федор Дмитриев
Genre : Музыкальный, мультфильм
Writing application : VirtualDubModRus 1.5.10.2 (build 2542/release)
Writing library : VirtualDubMod build 2542/release
Copyright : Россия / инокомпания CTB / СТВ, Анимационная студия «Мельница»
Comment : Rib by JNS82

Video
ID : 0
Format : MPEG-4 Visual
Format profile : Advanced Simple@L5
Format settings : BVOP1 / Custom Matrix
Format settings, BVOP : 1
Format settings, QPel : No
Format settings, GMC : No warppoints
Format settings, Matrix : Custom
Codec ID : XVID
Codec ID/Hint : XviD
Duration : 1 h 25 min
Bit rate : 1 999 kb/s
Width : 720 pixels
Height : 304 pixels
Display aspect ratio : 2.35:1
Frame rate : 24.000 FPS
Color space : YUV
Chroma subsampling : 4:2:0
Bit depth : 8 bits
Scan type : Progressive
Compression mode : Lossy
Bits/(Pixel*Frame) : 0.380
Stream size : 1.19 GiB (81%)
Writing library : XviD 67

Audio
ID : 1
Format : AC-3
Format/Info : Audio Coding 3
Commercial name : Dolby Digital
Codec ID : 2000
Duration : 1 h 25 min
Bit rate mode : Constant
Bit rate : 448 kb/s
Channel(s) : 6 channels
Channel layout : L R C LFE Ls Rs
Sampling rate : 48.0 kHz
Frame rate : 31.250 FPS (1536 SPF)
Compression mode : Lossy
Stream size : 273 MiB (18%)
Alignment : Split across interleaves
Interleave, duration : 42 ms (1.00 video frame)
Interleave, preload duratio : 500 ms
Title : Russian
Service kind : Complete Main


У вас нет необходимых прав для просмотра вложений в этом сообщении.

_________________

Друзья не забываем оставить комментарий к материалу!


 Профиль  
 
Сейчас вы смотрите Барбоскины Team (2022) WEB-DLRip, не забываем оставлять комментарии!
Зарегистрирован 06 окт 2022, 06:07
Статус Запрещён правообладателем Иваныч
Торрент Размер: 1.46 ГБ | Скачан: 61 раз | Торрент файл:
Приватный Нет (DHT включён)    Раздают: 38     Качают: 18     
Здоровье 100%
Поделиться:
Как качать?
Как качать?
Скачайте торрент и откройте его в своем клиенте
uTorrent

скачать программу,
дождитесь окончания загрузки.
Как заливать?
Как заливать?
X

Для того чтобы начать загружать материалы необходимо:
1.Быть зарегистрированным пользователем.
2. Выбрать желаемое направление по жанру.
3. Иметь желание работать на сайте.
4. Возраст должен быть 18+.
5. Желательно иметь опыт работы на других трекерах,
если нет такового не страшно поможем.

Инструкция

Показать сообщения за:  Поле сортировки  
Начать новую тему Эта тема закрыта, вы не можете редактировать и оставлять сообщения в ней.  [ 1 сообщение ] 
Не забудьте оставить комментарий!


Запрещено категорически:
» Развязывать разборки (для этого есть ЛС)
» Оставлять комментарии, не относящиеся к содержанию материала.
» Добавлять спам, рекламу флуд..
К спаму относится:
1. Реклама любого направления.
2. Ссылки на сторонние ресурсы рекламного характера.
3. Ссылки на ресурсы порнографического направления.
4. Сылки на блоги и им подбным контeнтам.
» Запрещено оскорбление администрации, модераторов и пользователей.
» Часто писать с вкл. Caps Lock
»За нарушение правил бан или отключение без объяснений.
Уважайте чужой труд!

Правила могут дополняться и изменяться. С уважением Администрация.


Кто сейчас на торрент-трекере

Сейчас этот трекер просматривают: нет зарегистрированных пользователей и гости: 1


Вы не можете начинать темы
Вы не можете отвечать на сообщения
Вы не можете редактировать свои сообщения
Вы не можете удалять свои сообщения
Вы не можете добавлять вложения

Перейти:  
cron
Создано на основе phpBB® Forum Software © phpBB Group
ppkBB3cker v.2.5 © 2008-2018 @ PPK | Icon Theme by Everaldo.com Design Studio
Русская поддержка phpBB


Мы не нарушаем авторские права!
Мнение по данному делу высказала ученая группа Европейского авторского общества (ECS).
Гиперссылка не должна расцениваться как неправомерное распространение произведения или иного объекта авторского права,
поскольку она «является предпосылкой для коммуникаций, а не самим материалом»
.
Яндекс.Метрика
Ресурс не предоставляет электронные версии произведений, а занимается лишь коллекционированием и каталогизацией ссылок, присылаемых и публикуемых на форуме нашими читателями.
Перед Судом Европейского союза были поставлены вопросы: Следует ли расценивать гиперссылку как распространение объекта авторского права третьим лицам? Является ли факт размещения ссылки нарушением авторского права? Мнение по данному делу высказала ученая группа Европейского авторского общества (ECS). По результатам научных исследований группа пришла к выводу, что гиперссылка не должна расцениваться как неправомерное распространение произведения или иного объекта авторского права, поскольку она «является предпосылкой для коммуникаций, а не самим материалом». Ученые отметили, что возможность делать ссылки на различные источники и документы является неотъемлемым основополагающим правом на свободу слова и высказывания.
cron