[ 1 сообщение ] 
Автор Сообщение
Непрочитанное сообщениеДобавлено: 25 ноя 2022, 19:18  
Не в сети
Администратор
Администратор
Аватара пользователя

Раздал: 21.12 ТБ
Скачал: 1.97 ТБ
Ратио: 1010.602


Зарегистрирован: 18 фев 2021, 17:36
Сообщения: 11192
Откуда: Россия
Репутационный балл: 200
СпециалистСпециалистСпециалистСпециалистСпециалистСпециалистСпециалистСпециалистСпециалистСпециалист
Награды:
подробнее

Медали: 13

Активисту (1) Создание сайта (1) За 100 релизов (1) за 200 релизов (1) За 500 релизов (1)

За 1000 релизов (1) за 3000 релизов (1) за 4000 релизов (1) за 5000 релизов (1) Верный сид - за 5 Тб отданного (1)

Верный сид  за 10 Тб отданного (1) Верный сид  за 15 Тб отданного (1) Верный сид  за 20 Тб отданного (1)
Информация о фильме
Название: Гостья из космоса
Оригинальное название: Lille Allan - den menneskelige antenne
Год выхода: 2022
Жанр: Мультфильм, приключения, семейный
Режиссер: Амалия Несбю Фик
В ролях: ШЛуис Несс-Шмидт, Софи Торп, Андерс В. Бертельсен, Еспер Кристенсен, Петер Фрёдин, Бодиль Ёргенсон, Николай Коперникус, Сара Фанта Траоре

О фильме:
11-летний Аллан вместе с отцом переезжают в незнакомый городок. В поисках новых друзей мальчик знакомится с ученым соседом. Тот уверен, что инопланетяне вот-вот прилетят на Землю, и никого лучше Аллана для первого контакта не найти. Вскоре тарелка «зеленого человечка» действительно терпит крушение на местном стадионе. Из нее появляется чудная девочка. И хоть между детьми возникает крепкая дружба, Аллан дает честное землянское отправить необычную гостью домой.



Страна: Дания
Студия: Nordisk Film A/S, Pop Up Production, Wil Film Aps
Продолжительность: 01:20:09
Перевод: Дублированный | Pride Production

Цифровой релиз: 24 ноября 2022 года
Примечание: Без рекламы

Файл
Формат: MKV
Качество: WEB-DL 1080p
Видео: MPEG-4 AVC, ~ 6144 Кбит/с, 1920x1080
Звук: AAC, 2 ch, 128 Кбит/с
Субтитры: Отсутствуют
Семпл

Общее
Уникальный идентификатор : 187560269755291682209271443873882612967 (0x8D1ACB42EC2948A7BB91F206191EA4E7)
Полное имя : D:Lille.Allan.den.menneskelige.antenne.2022.WEB-DL.1080p.mkv
Формат : Matroska
Версия формата : Version 4
Размер файла : 3,51 Гбайт
Продолжительность : 1 ч. 20 м.
Общий поток : 6 268 Кбит/сек
Название фильма : Lille.Allan.den.menneskelige.antenne.2022.WEB-DL.1080p
Дата кодирования : UTC 2022-11-24 17:49:54
Программа кодирования : mkvmerge v68.0.0 ('The Curtain') 64-bit
Библиотека кодирования : libebml v1.4.2 + libmatroska v1.6.4
Attachments : poster.jpg

Видео
Идентификатор : 1
Формат : AVC
Формат/Информация : Advanced Video Codec
Профиль формата : Baseline@L4
Настройки формата : 2 Ref Frames
Параметр CABAC формата : Нет
Параметр RefFrames формата : 2 кадра
Идентификатор кодека : V_MPEG4/ISO/AVC
Продолжительность : 1 ч. 20 м.
Вид битрейта : Постоянный
Битрейт : 6 144 Кбит/сек
Ширина : 1 920 пикселей
Высота : 1 080 пикселей
Соотношение сторон : 1,85:1
Режим частоты кадров : Постоянный
Частота кадров : 24,000 кадра/сек
Цветовое пространство : YUV
Субдискретизация насыщенности : 4:2:0
Битовая глубина : 8 бит
Тип развёртки : Прогрессивная
Бит/(Пиксели*Кадры) : 0.123
Размер потока : 3,44 Гбайт (98%)
Default : Да
Forced : Нет

Аудио
Идентификатор : 2
Формат : AAC LC
Формат/Информация : Advanced Audio Codec Low Complexity
Идентификатор кодека : A_AAC-2
Продолжительность : 1 ч. 20 м.
Битрейт : 128 Кбит/сек
Каналы : 2 канала
Channel layout : L R
Частота : 48,0 КГц
Частота кадров : 46,875 кадров/сек (1024 SPF)
Метод сжатия : С потерями
Размер потока : 73,4 Мбайт (2%)
Заголовок : [Pride Production | AAC Audio]
Язык : Russian
Default : Да
Forced : Нет


У вас нет необходимых прав для просмотра вложений в этом сообщении.

_________________

Друзья не забываем оставить комментарий к материалу!


 Профиль  
Ответить с цитатой  
Сейчас вы смотрите Гостья из космоса / Lille Allan - den menneskelige antenne (2022) WEB-DL 1080p | D, не забываем оставлять комментарии!
Зарегистрирован 25 ноя 2022, 19:18
Статус √ Проверено Иваныч
Торрент Размер: 3.51 ГБ | Скачан: 780 раз | Торрент файл:
Приватный Нет (DHT включён)    Раздают: 299     Качают: 234     
Здоровье 100%
Поделиться:
Как качать?
Как качать?
Скачайте торрент и откройте его в своем клиенте
uTorrent

скачать программу,
дождитесь окончания загрузки.
Как заливать?
Как заливать?
X

Для того чтобы начать загружать материалы необходимо:
1.Быть зарегистрированным пользователем.
2. Выбрать желаемое направление по жанру.
3. Иметь желание работать на сайте.
4. Возраст должен быть 18+.
5. Желательно иметь опыт работы на других трекерах,
если нет такового не страшно поможем.

Инструкция

Показать сообщения за:  Поле сортировки  
Начать новую тему Ответить на тему  [ 1 сообщение ] 
Не забудьте оставить комментарий!


Запрещено категорически:
» Развязывать разборки (для этого есть ЛС)
» Оставлять комментарии, не относящиеся к содержанию материала.
» Добавлять спам, рекламу флуд..
К спаму относится:
1. Реклама любого направления.
2. Ссылки на сторонние ресурсы рекламного характера.
3. Ссылки на ресурсы порнографического направления.
4. Сылки на блоги и им подбным контeнтам.
» Запрещено оскорбление администрации, модераторов и пользователей.
» Часто писать с вкл. Caps Lock
»За нарушение правил бан или отключение без объяснений.
Уважайте чужой труд!

Правила могут дополняться и изменяться. С уважением Администрация.


Кто сейчас на торрент-трекере

Сейчас этот трекер просматривают: нет зарегистрированных пользователей и гости: 1


Вы не можете начинать темы
Вы не можете отвечать на сообщения
Вы не можете редактировать свои сообщения
Вы не можете удалять свои сообщения
Вы не можете добавлять вложения

Перейти:  
cron
Создано на основе phpBB® Forum Software © phpBB Group
ppkBB3cker v.2.5 © 2008-2018 @ PPK | Icon Theme by Everaldo.com Design Studio
Русская поддержка phpBB


Мы не нарушаем авторские права!
Мнение по данному делу высказала ученая группа Европейского авторского общества (ECS).
Гиперссылка не должна расцениваться как неправомерное распространение произведения или иного объекта авторского права,
поскольку она «является предпосылкой для коммуникаций, а не самим материалом»
.
Яндекс.Метрика
Ресурс не предоставляет электронные версии произведений, а занимается лишь коллекционированием и каталогизацией ссылок, присылаемых и публикуемых на форуме нашими читателями.
Перед Судом Европейского союза были поставлены вопросы: Следует ли расценивать гиперссылку как распространение объекта авторского права третьим лицам? Является ли факт размещения ссылки нарушением авторского права? Мнение по данному делу высказала ученая группа Европейского авторского общества (ECS). По результатам научных исследований группа пришла к выводу, что гиперссылка не должна расцениваться как неправомерное распространение произведения или иного объекта авторского права, поскольку она «является предпосылкой для коммуникаций, а не самим материалом». Ученые отметили, что возможность делать ссылки на различные источники и документы является неотъемлемым основополагающим правом на свободу слова и высказывания.