[ 1 сообщение ] 
Автор Сообщение
Непрочитанное сообщениеДобавлено: 04 окт 2022, 18:12  
Не в сети
Администратор
Администратор
Аватара пользователя

Раздал: 21.12 ТБ
Скачал: 1.97 ТБ
Ратио: 1010.602


Зарегистрирован: 18 фев 2021, 17:36
Сообщения: 11192
Откуда: Россия
Репутационный балл: 200
СпециалистСпециалистСпециалистСпециалистСпециалистСпециалистСпециалистСпециалистСпециалистСпециалист
Награды:
подробнее

Медали: 13

Активисту (1) Создание сайта (1) За 100 релизов (1) за 200 релизов (1) За 500 релизов (1)

За 1000 релизов (1) за 3000 релизов (1) за 4000 релизов (1) за 5000 релизов (1) Верный сид - за 5 Тб отданного (1)

Верный сид  за 10 Тб отданного (1) Верный сид  за 15 Тб отданного (1) Верный сид  за 20 Тб отданного (1)
Информация о фильме
Название: Морская жизнь
Оригинальное название: Marine Life
Год выхода: 2022
Жанр: Видовой, природа

О фильме: Эти огромные водоемы, окружающие континенты, имеют решающее значение для нас на планете Земля. Однако чрезмерный лов рыбы людьми и постоянная угроза глобального потепления всегда угрожают сделать эти районы бесплодными. Различные водоемы на земле покрывают почти 72 процента поверхности нашей планеты. Морские течения определяют метеорологические условия планеты и моделируют жизнь всего животного мира под водой.

Студия: 8K Ultra HD Channal
Продолжительность: 00:30:00
Перевод: Не требуется (нет диалогов и комментариев)

Файл
Кодек: h.264, AV1
Качество: WEBRip 1080p, 2160p, 4320p
Видео 1: AVC, 1920x1080, ~3790kbps, 30.00 fps
Видео 2: AV1, 3840x2160, ~14.2 Mbps kbps, 30.00 fps
Видео 3: AV1, 7680x4320, ~30.3 Mbps, 30.00 fps
Аудио: AC3, 2 ch, 192 kbps

В раздаче 3 одинаковых по содержанию, но разные по тех. параметрам / формату (разрешение / кодеки) файла.
1080p

General
Unique ID: 322061186561438549596738067075702331899 (0xF24ABA72ADB5AA0ABACA6B6ECB9619FB)
Complete name: E:MARINE LIFE FHD-8KMARINE LIFE 1080p.mkv
Format: Matroska
Format version: Version 4
File size: 855 MiB
Duration: 30 min 0 s
Overall bit rate: 3 985 kb/s
Encoded date: UTC 2022-10-03 12:19:01
Writing application: mkvmerge v69.0.0 ('Day And Age') 64-bit
Writing library: libebml v1.4.2 + libmatroska v1.6.4

Video
ID: 1
Format: AVC
Format/Info: Advanced Video Codec
Format profile: High@L4
Format settings: CABAC / 3 Ref Frames
Format settings, CABAC: Yes
Format settings, ReFrames: 3 frames
Codec ID: V_MPEG4/ISO/AVC
Duration: 30 min 0 s
Bit rate: 3 791 kb/s
Width: 1 920 pixels
Height: 1 080 pixels
Display aspect ratio: 16:9
Frame rate mode: Constant
Frame rate: 30.000 FPS
Color space: YUV
Chroma subsampling: 4:2:0
Bit depth: 8 bits
Scan type: Progressive
Bits/(Pixel*Frame): 0.061
Stream size: 814 MiB (95%)
Writing library: x264 core 155 r2901 7d0ff22
Default: Yes
Forced: No
Color range: Limited
Color primaries: BT.709
Transfer characteristics: BT.709
Matrix coefficients: BT.709

Audio
ID: 2
Format: AC-3
Format/Info: Audio Coding 3
Commercial name: Dolby Digital
Codec ID: A_AC3
Duration: 30 min 0 s
Bit rate mode: Constant
Bit rate: 192 kb/s
Channel(s): 2 channels
Channel layout: L R
Sampling rate: 48.0 kHz
Frame rate: 31.250 FPS (1536 SPF)
Bit depth: 16 bits
Compression mode: Lossy
Stream size: 41.2 MiB (5%)
Service kind: Complete Main
Default: Yes
Forced: No
-----------------------------------------------------------------
2160p

General
Unique ID: 149199974034668065308793321919407727009 (0x703EDEA9370C8DE0B915AFF475C421A1)
Complete name: E:MARINE LIFE FHD-8KMARINE LIFE 2160p.mkv
Format: Matroska
Format version: Version 4
File size: 3.02 GiB
Duration: 30 min 0 s
Overall bit rate: 14.4 Mb/s
Encoded date: UTC 2022-10-03 12:19:08
Writing application: mkvmerge v69.0.0 ('Day And Age') 64-bit
Writing library: libebml v1.4.2 + libmatroska v1.6.4

Video
ID: 1
Format: AV1
Format/Info: AOMedia Video 1
Codec ID: V_AV1
Duration: 30 min 0 s
Bit rate: 14.2 Mb/s
Width: 3 840 pixels
Height: 2 160 pixels
Display aspect ratio: 16:9
Frame rate mode: Constant
Frame rate: 30.000 FPS
Bits/(Pixel*Frame): 0.057
Stream size: 2.98 GiB (99%)
Default: Yes
Forced: No

Audio
ID: 2
Format: AC-3
Format/Info: Audio Coding 3
Commercial name: Dolby Digital
Codec ID: A_AC3
Duration: 30 min 0 s
Bit rate mode: Constant
Bit rate: 192 kb/s
Channel(s): 2 channels
Channel layout: L R
Sampling rate: 48.0 kHz
Frame rate: 31.250 FPS (1536 SPF)
Bit depth: 16 bits
Compression mode: Lossy
Stream size: 41.2 MiB (1%)
Service kind: Complete Main
Default: Yes
Forced: No
-------------------------------------------------------
4320p

General
Unique ID: 28350996397479854135098099611124596619 (0x1554340AE99C110DF37C5FC6902B7F8B)
Complete name: E:MARINE LIFE FHD-8KMARINE LIFE 4320p.mkv
Format: Matroska
Format version: Version 4
File size: 6.39 GiB
Duration: 30 min 0 s
Overall bit rate: 30.5 Mb/s
Encoded date: UTC 2022-10-03 12:19:57
Writing application: mkvmerge v69.0.0 ('Day And Age') 64-bit
Writing library: libebml v1.4.2 + libmatroska v1.6.4

Video
ID: 1
Format: AV1
Format/Info: AOMedia Video 1
Codec ID: V_AV1
Duration: 30 min 0 s
Bit rate: 30.3 Mb/s
Width: 7 680 pixels
Height: 4 320 pixels
Display aspect ratio: 16:9
Frame rate mode: Constant
Frame rate: 30.000 FPS
Bits/(Pixel*Frame): 0.030
Stream size: 6.35 GiB (99%)
Default: Yes
Forced: No

Audio
ID: 2
Format: AC-3
Format/Info: Audio Coding 3
Commercial name: Dolby Digital
Codec ID: A_AC3
Duration: 30 min 0 s
Bit rate mode: Constant
Bit rate: 192 kb/s
Channel(s): 2 channels
Channel layout: L R
Sampling rate: 48.0 kHz
Frame rate: 31.250 FPS (1536 SPF)
Bit depth: 16 bits
Compression mode: Lossy
Stream size: 41.2 MiB (1%)
Service kind: Complete Main
Default: Yes
Forced: No


У вас нет необходимых прав для просмотра вложений в этом сообщении.

_________________

Друзья не забываем оставить комментарий к материалу!


 Профиль  
Ответить с цитатой  
Зарегистрирован 04 окт 2022, 18:12
Статус √ Проверено Иваныч
Торрент Размер: 10.24 ГБ | Скачан: 82 раз | Торрент файл:
Приватный Нет (DHT включён)    Раздают: 23     Качают: 38     
Здоровье 60%
Поделиться:
Как качать?
Как качать?
Скачайте торрент и откройте его в своем клиенте
uTorrent

скачать программу,
дождитесь окончания загрузки.
Как заливать?
Как заливать?
X

Для того чтобы начать загружать материалы необходимо:
1.Быть зарегистрированным пользователем.
2. Выбрать желаемое направление по жанру.
3. Иметь желание работать на сайте.
4. Возраст должен быть 18+.
5. Желательно иметь опыт работы на других трекерах,
если нет такового не страшно поможем.

Инструкция

Показать сообщения за:  Поле сортировки  
Начать новую тему Ответить на тему  [ 1 сообщение ] 
Не забудьте оставить комментарий!


Запрещено категорически:
» Развязывать разборки (для этого есть ЛС)
» Оставлять комментарии, не относящиеся к содержанию материала.
» Добавлять спам, рекламу флуд..
К спаму относится:
1. Реклама любого направления.
2. Ссылки на сторонние ресурсы рекламного характера.
3. Ссылки на ресурсы порнографического направления.
4. Сылки на блоги и им подбным контeнтам.
» Запрещено оскорбление администрации, модераторов и пользователей.
» Часто писать с вкл. Caps Lock
»За нарушение правил бан или отключение без объяснений.
Уважайте чужой труд!

Правила могут дополняться и изменяться. С уважением Администрация.


Кто сейчас на торрент-трекере

Сейчас этот трекер просматривают: нет зарегистрированных пользователей и гости: 1


Вы не можете начинать темы
Вы не можете отвечать на сообщения
Вы не можете редактировать свои сообщения
Вы не можете удалять свои сообщения
Вы не можете добавлять вложения

Перейти:  
cron
Создано на основе phpBB® Forum Software © phpBB Group
ppkBB3cker v.2.5 © 2008-2018 @ PPK | Icon Theme by Everaldo.com Design Studio
Русская поддержка phpBB


Мы не нарушаем авторские права!
Мнение по данному делу высказала ученая группа Европейского авторского общества (ECS).
Гиперссылка не должна расцениваться как неправомерное распространение произведения или иного объекта авторского права,
поскольку она «является предпосылкой для коммуникаций, а не самим материалом»
.
Яндекс.Метрика
Ресурс не предоставляет электронные версии произведений, а занимается лишь коллекционированием и каталогизацией ссылок, присылаемых и публикуемых на форуме нашими читателями.
Перед Судом Европейского союза были поставлены вопросы: Следует ли расценивать гиперссылку как распространение объекта авторского права третьим лицам? Является ли факт размещения ссылки нарушением авторского права? Мнение по данному делу высказала ученая группа Европейского авторского общества (ECS). По результатам научных исследований группа пришла к выводу, что гиперссылка не должна расцениваться как неправомерное распространение произведения или иного объекта авторского права, поскольку она «является предпосылкой для коммуникаций, а не самим материалом». Ученые отметили, что возможность делать ссылки на различные источники и документы является неотъемлемым основополагающим правом на свободу слова и высказывания.